<?xml version="1.0" standalone="no"?>
<!DOCTYPE svg PUBLIC "-//W3C//DTD SVG 1.1//EN" "http://www.w3.org/Graphics/SVG/1.1/DTD/svg11.dtd" >
<svg xmlns="http://www.w3.org/2000/svg">
<metadata>Generated by IcoMoon</metadata>
<defs>
<font id="icomoon" horiz-adv-x="1024">
<font-face units-per-em="1024" ascent="960" descent="-64" />
<missing-glyph horiz-adv-x="1024" />
<glyph unicode="&#x20;" horiz-adv-x="512" d="" />
<glyph unicode="&#xe900;" glyph-name="icon-filter-big" d="M418.147 404.163l-261.287 314.335c-13.402 18.233-15.548 42.524-5.581 62.865 10.054 20.518 30.752 33.57 53.489 33.57h614.464c22.738 0 43.435-13.053 53.489-33.57 9.967-20.341 7.821-44.632-5.581-62.865l-0.946-1.21-260.443-313.096v-244.669c0-18.893-8.742-36.733-23.682-48.167l-68.202-52.194c-18.156-13.895-42.557-16.14-62.903-5.759-20.167 10.289-32.816 31.173-32.816 53.926v296.833zM826.745 758.834c-1.499 3.059-4.417 4.899-7.512 4.899h-614.464c-3.095 0-6.013-1.84-7.512-4.899-1.586-3.236-1.239-7.159-0.083-8.808l266.26-320.246c3.822-4.597 5.915-10.388 5.915-16.367v-306.084c0-3.606 1.946-6.82 4.885-8.319 2.76-1.408 6.008-1.109 8.518 0.812l68.202 52.194c2.233 1.709 3.599 4.495 3.599 7.507v253.925c0 5.981 2.094 11.773 5.919 16.371l265.713 319.431c1.83 2.81 2.069 6.507 0.562 9.583z" />
<glyph unicode="&#xe901;" glyph-name="icon-d-new" d="M337.273 510.487l-20.080 22.418c-2.777 3.071-7.186 4.064-11.012 2.478s-6.24-5.406-6.030-9.551l1.501-29.835c1.085-20.865-6.73-41.212-21.504-55.986s-35.121-22.589-55.933-21.507l-29.898 1.504c-4.136 0.209-7.956-2.205-9.541-6.031s-0.593-8.234 2.45-10.986l22.286-20.105c15.459-14.001 24.278-33.886 24.278-54.743s-8.819-40.742-24.324-54.784l-22.212-20.039c-3.071-2.777-4.064-7.186-2.478-11.012s5.406-6.24 9.551-6.030l29.889 1.504c20.842 1.048 41.154-6.773 55.91-21.529s22.578-35.068 21.529-55.91l-1.504-29.898c-0.209-4.136 2.205-7.956 6.031-9.541s8.234-0.593 10.91 2.365l20.181 22.53c14.001 15.459 33.886 24.278 54.743 24.278s40.742-8.819 54.86-24.409l19.963-22.287c2.777-3.071 7.186-4.064 11.012-2.478s6.24 5.406 6.030 9.551l-1.501 29.835c-1.085 20.865 6.73 41.212 21.504 55.986s35.121 22.589 55.933 21.507l29.941-1.507c4.128-0.215 7.943 2.194 9.524 6.014s0.585 8.22-2.525 11.021l-22.196 20.054c-15.502 13.992-24.35 33.896-24.35 54.779s8.848 40.787 24.338 54.769l22.247 20.099c3.072 2.766 4.068 7.167 2.487 10.986s-5.396 6.228-9.577 6.011l-29.698-1.494c-20.925-1.178-41.359 6.621-56.179 21.441s-22.618 35.254-21.451 55.989l1.504 29.898c0.209 4.136-2.205 7.956-6.031 9.541s-8.234 0.593-10.91-2.365l-20.181-22.53c-14.001-15.459-33.886-24.278-54.743-24.278s-40.742 8.819-54.743 24.278zM392.016 550.209c2.783 0 5.437 1.177 7.188 3.109l20.165 22.513c20.93 23.145 54.156 30.623 82.984 18.676s47.024-40.736 45.447-71.891l-1.514-30.078c-0.154-2.729 0.864-5.395 2.797-7.328s4.598-2.95 7.518-2.786l29.835 1.501c31.196 1.621 60.030-16.584 71.979-45.447s4.421-62.122-18.754-82.991l-22.22-20.074c-2.057-1.857-3.231-4.498-3.231-7.269s1.174-5.412 3.243-7.279l22.169-20.029c23.213-20.904 30.742-54.163 18.793-83.026s-40.783-47.068-71.926-45.45l-29.941 1.507c-2.761 0.144-5.453-0.891-7.408-2.845s-2.989-4.647-2.843-7.461l1.504-29.878c1.578-31.165-16.618-59.954-45.446-71.901s-62.054-4.469-83.085 18.788l-19.947 22.27c-1.868 2.063-4.522 3.24-7.305 3.24s-5.437-1.177-7.188-3.109l-20.165-22.513c-20.93-23.145-54.156-30.623-82.984-18.676s-47.024 40.736-45.447 71.891l1.504 29.887c0.139 2.773-0.901 5.476-2.865 7.44s-4.667 3.004-7.439 2.865l-29.878-1.504c-31.165-1.578-59.954 16.618-71.901 45.446s-4.469 62.054 18.704 83.009l22.194 20.023c2.063 1.868 3.24 4.522 3.24 7.305s-1.177 5.437-3.194 7.264l-22.268 20.089c-23.145 20.93-30.623 54.156-18.676 82.984s40.736 47.024 71.891 45.447l29.941-1.507c2.761-0.144 5.453 0.891 7.408 2.845s2.989 4.647 2.843 7.461l-1.504 29.878c-1.578 31.165 16.618 59.954 45.446 71.901s62.054 4.469 83.085-18.788l19.985-22.312c1.866-2.037 4.502-3.197 7.267-3.197zM776.645 727.004c-22.754-8.84-48.614-1.922-63.912 17.095l-16.305 20.264-3.974-25.652c-3.741-24.117-22.663-43.039-46.79-46.782l-25.639-3.969 20.2-16.254c19.057-15.299 25.984-41.193 17.12-63.942l-9.417-24.22 24.282 9.441c22.754 8.792 48.582 1.852 63.868-17.163l16.287-20.265 3.978 25.713c3.732 24.148 22.698 43.084 46.793 46.768l25.692 3.977-20.253 16.278c-19.057 15.299-25.984 41.193-17.12 63.942l9.411 24.204-24.221-9.436zM794.592 802.681c20.707 8.062 44.214 3.123 59.921-12.584s20.646-39.214 12.592-59.901l-13.874-35.684 29.812-23.961c17.308-13.898 24.773-36.706 19.033-58.148s-23.603-37.469-45.533-40.859l-37.85-5.859-5.853-37.838c-3.391-21.936-19.418-39.799-40.86-45.54s-44.25 1.725-58.139 19.022l-23.989 29.848-35.65-13.861c-20.7-8.059-44.207-3.121-59.915 12.587s-20.646 39.214-12.592 59.901l13.875 35.687-29.827 24c-17.288 13.897-24.737 36.692-18.993 58.116s23.599 37.434 45.506 40.816l37.846 5.859 5.849 37.755c3.358 21.958 19.384 39.852 40.84 45.601s44.282-1.736 58.123-19.017l24.007-29.836 35.669 13.896zM392 235.968c-50.81 0-92 41.19-92 92s41.19 92 92 92c50.81 0 92-41.19 92-92s-41.19-92-92-92zM392 299.968c15.464 0 28 12.536 28 28s-12.536 28-28 28c-15.464 0-28-12.536-28-28s12.536-28 28-28zM756.416 672c0-17.673-14.327-32-32-32 11.046 0 20 8.954 20 20s-8.954 20-20 20c-11.046 0-20-8.954-20-20 0-11.040 8.945-19.991 19.983-20-17.665 0.009-31.983 14.333-31.983 32s14.317 31.99 31.982 32c24.329-0.010 44.018-19.706 44.018-44 0-24.301-19.699-44-44-44s-44 19.699-44 44c0 24.294 19.69 43.99 43.982 44 17.701-0.010 32.018-14.333 32.018-32z" />
<glyph unicode="&#xe902;" glyph-name="icon-f-new" d="M405.333 714.667c-17.673 0-32-14.327-32-32v-384c0-17.673 14.327-32 32-32h384c17.673 0 32 14.327 32 32v384c0 17.673-14.327 32-32 32h-384zM405.333 778.667h384c53.019 0 96-42.981 96-96v-384c0-53.019-42.981-96-96-96h-384c-53.019 0-96 42.981-96 96v384c0 53.019 42.981 96 96 96zM725.333 138.667c17.673 0 32-14.327 32-32s-14.327-32-32-32h-472.615c-39.425 0-71.385 31.96-71.385 71.385v472.615c0 17.673 14.327 32 32 32s32-14.327 32-32v-472.615c0-4.078 3.306-7.385 7.385-7.385h472.615zM469.333 586.667c-17.673 0-32 14.327-32 32s14.327 32 32 32h256c17.673 0 32-14.327 32-32s-14.327-32-32-32h-256zM469.333 458.667c-17.673 0-32 14.327-32 32s14.327 32 32 32h256c17.673 0 32-14.327 32-32s-14.327-32-32-32h-256zM469.333 330.667c-17.673 0-32 14.327-32 32s14.327 32 32 32h170.667c17.673 0 32-14.327 32-32s-14.327-32-32-32h-170.667z" />
<glyph unicode="&#xe903;" glyph-name="icon-m-new" d="M512 74.667h-341.333c-17.673 0-32 14.327-32 32v85.333c0 64.801 52.532 117.333 117.333 117.333h10.667v352c0 64.801 52.532 117.333 117.333 117.333h384c64.801 0 117.333-52.532 117.333-117.333v-42.667c0-17.673-14.327-32-32-32h-96v-394.667c0-41.237-33.429-74.667-74.667-74.667h-128c-3.74 0-7.33 0.642-10.667 1.821v-12.488c0-17.673-14.327-32-32-32zM480 138.667v96c0 3.622 0.258 7.183 0.756 10.667h-224.756c-29.455 0-53.333-23.878-53.333-53.333v-53.333h277.333zM554.332 309.333c37.729 0.694 69.97-27.156 75.002-68.665v-59.335h53.333c5.891 0 10.667 4.776 10.667 10.667v522.667h-309.333c-29.455 0-53.333-23.878-53.333-53.333v-352h223.665zM555.155 245.337c-0.163-0.002-0.325-0.004-0.488-0.004-5.891 0-10.667-4.776-10.667-10.667v-55.154c3.336 1.179 6.927 1.821 10.667 1.821h10.761l0.163 55.29c-0.629 4.936-4.788 8.633-10.435 8.712zM757.333 650.667h64v10.667c0 29.455-23.878 53.333-53.333 53.333h-10.667v-64zM426.667 416c-17.673 0-32 14.327-32 32s14.327 32 32 32h170.667c17.673 0 32-14.327 32-32s-14.327-32-32-32h-170.667zM426.667 544c-17.673 0-32 14.327-32 32s14.327 32 32 32h170.667c17.673 0 32-14.327 32-32s-14.327-32-32-32h-170.667z" />
<glyph unicode="&#xe904;" glyph-name="icon-r-new" d="M604.358 757.362h56.975c41.237 0 74.667-33.429 74.667-74.667 0-17.673-14.327-32-32-32s-32 14.327-32 32c0 5.891-4.776 10.667-10.667 10.667h-56.975c-8.786-24.857-32.492-42.667-60.358-42.667h-149.333c-27.866 0-51.572 17.809-60.358 42.667h-56.975c-5.891 0-10.667-4.776-10.667-10.667v-512c0-5.891 4.776-10.667 10.667-10.667h384c5.891 0 10.667 4.776 10.667 10.667v85.333c0 17.673 14.327 32 32 32s32-14.327 32-32v-85.333c0-41.237-33.429-74.667-74.667-74.667h-384c-41.237 0-74.667 33.429-74.667 74.667v512c0 41.237 33.429 74.667 74.667 74.667h56.975c8.786 24.857 32.492 42.667 60.358 42.667h149.333c27.866 0 51.572-17.809 60.358-42.667zM833.294 553.401c8.084 8.084 11.241 19.867 8.282 30.91s-11.585 19.669-22.628 22.628c-11.043 2.959-22.826-0.198-30.91-8.282l-263.987-263.987-7.538-52.793 52.793 7.538 263.987 263.987zM588.914 227.564l-105.586-15.076c-21.117-3.015-39.217 15.085-36.202 36.202l15.076 105.586c0.979 6.855 4.155 13.208 9.051 18.104l271.531 271.531c24.252 24.252 59.6 33.724 92.729 24.847s59.006-34.754 67.883-67.883c8.877-33.129-0.595-68.477-24.847-92.729l-271.531-271.531c-4.896-4.896-11.249-8.073-18.104-9.051zM394.667 736.028v-21.333h149.333v21.333h-149.333zM362.667 522.695c-17.673 0-32 14.327-32 32s14.327 32 32 32h213.333c17.673 0 32-14.327 32-32s-14.327-32-32-32h-213.333zM362.667 394.695c-17.673 0-32 14.327-32 32s14.327 32 32 32h85.333c17.673 0 32-14.327 32-32s-14.327-32-32-32h-85.333z" />
<glyph unicode="&#xe905;" glyph-name="icon-w-new" d="M533.292 400.29c2.619 12.923 13.605 23.876 26.54 26.443l71.466 25.556-68.61 37.902c-10.472 5.785-16.843 16.928-16.514 28.888l2.229 81.229-52.298-43.273c-8.312-6.878-19.531-9.104-29.84-5.921l-83.006 25.628 25.628-83.006c3.183-10.309 0.957-21.528-5.922-29.841l-43.329-52.326 81.257 2.229c11.957 0.328 23.098-6.040 28.884-16.509l37.891-68.616 25.623 71.617zM623.658 381.597l230.969-230.969c30.17-30.17-15.085-75.425-45.255-45.255l-230.99 230.99-23.669-66.115c-5.359-16.952-20.094-29.235-37.734-31.455s-34.959 6.028-45.19 22.55l-48.607 87.946-104.191-2.857c-17.947-0.344-34.376 10.032-41.778 26.385s-4.356 35.544 6.726 47.628l58.697 70.935-30.971 100.379c-4.253 15.939 0.311 32.936 11.976 44.6s28.662 16.229 44.6 11.976l1.191-0.343 99.199-30.628 69.722 57.649c13.257 12.102 32.448 15.148 48.801 7.746s26.729-23.83 26.379-42.042l-2.851-103.931 89.425-49.445c15.058-9.41 23.278-26.71 21.063-44.327s-14.462-32.344-30.314-37.373l-67.2-24.043zM245.333 256c0 42.667 64 42.667 64 0v-42.667c0-17.673-14.327-32-32-32h-42.667c-42.667 0-42.667 64 0 64h10.667v10.667zM309.333 170.667c0-42.667-64-42.667-64 0v42.667c0 17.673 14.327 32 32 32h42.667c42.667 0 42.667-64 0-64h-10.667v-10.667zM693.333 768c0 42.667 64 42.667 64 0v-42.667c0-17.673-14.327-32-32-32h-42.667c-42.667 0-42.667 64 0 64h10.667v10.667zM757.333 682.667c0-42.667-64-42.667-64 0v42.667c0 17.673 14.327 32 32 32h42.667c42.667 0 42.667-64 0-64h-10.667v-10.667zM394.667 704v64c0 42.667 64 42.667 64 0v-64c0-42.667-64-42.667-64 0zM192 544h64c42.667 0 42.667-64 0-64h-64c-42.667 0-42.667 64 0 64z" />
<glyph unicode="&#xe906;" glyph-name="arrow-to-bottom" d="M512 359.851l190.392 195.791c12.321 12.67 32.58 12.953 45.25 0.633s12.953-32.58 0.633-45.25l-203.266-209.030c-8.666-8.925-20.553-13.994-33.009-13.994s-24.343 5.069-32.992 13.977l-203.283 209.048c-12.321 12.67-12.038 32.93 0.633 45.25s32.93 12.038 45.25-0.633l190.392-195.791z" />
<glyph unicode="&#xe907;" glyph-name="arrow-to-top" d="M702.392 340.358c12.321-12.67 32.58-12.953 45.25-0.633s12.953 32.58 0.633 45.25l-203.266 209.030c-8.666 8.925-20.553 13.994-33.009 13.994s-24.343-5.069-32.992-13.977l-203.283-209.048c-12.321-12.67-12.038-32.93 0.633-45.25s32.93-12.038 45.25 0.633l190.392 195.791 190.392-195.791z" />
<glyph unicode="&#xe908;" glyph-name="icon---clear-search" d="M221.867 76.8h-187.733c-42.667 0-42.667-64 0-64h192c38.4 0 38.4 64-4.267 64zM200.533 149.333c4.267-4.267 12.8-8.533 21.333-8.533l170.667 4.267c8.533 0 17.067 4.267 21.333 8.533l98.133 98.133c0 0 0 0 0 0s0 0 0 0l277.333 277.333c29.867 29.867 29.867 76.8 0 106.667l-230.4 230.4c-29.867 29.867-76.8 29.867-106.667 0l-430.933-430.933c-29.867-29.867-29.867-76.8 0-106.667l179.2-179.2zM499.2 823.467c4.267 4.267 12.8 4.267 17.067 0l230.4-230.4c4.267-4.267 4.267-12.8 0-17.067l-256-256-247.467 247.467 256 256zM68.267 388.267l132.267 132.267 247.467-247.467-68.267-68.267h-140.8l-170.667 170.667c-4.267 4.267-4.267 8.533 0 12.8zM605.867 76.8h-64c-42.667 0-42.667-64 0-64h64c42.667 0 42.667 64 0 64zM989.867 76.8h-64c-42.667 0-42.667-64 0-64h64c42.667 0 42.667 64 0 64zM418.133 76.8h-68.267c-42.667 0-42.667-64 0-64h64c46.933 0 46.933 64 4.267 64zM802.133 76.8h-64c-42.667 0-42.667-64 0-64h64c42.667 0 42.667 64 0 64z" />
<glyph unicode="&#xe909;" glyph-name="icon--calendar" d="M714.667 736h74.667c53.019 0 96-42.981 96-96v-469.333c0-53.019-42.981-96-96-96h-554.667c-53.019 0-96 42.981-96 96v469.333c0 53.019 42.981 96 96 96h74.667v53.333c0 17.673 14.327 32 32 32s32-14.327 32-32v-53.333h277.333v53.333c0 17.673 14.327 32 32 32s32-14.327 32-32v-53.333zM234.667 672c-17.673 0-32-14.327-32-32v-469.333c0-17.673 14.327-32 32-32h554.667c17.673 0 32 14.327 32 32v469.333c0 17.673-14.327 32-32 32h-554.667zM341.333 501.333c-17.673 0-32 14.327-32 32s14.327 32 32 32h170.667c17.673 0 32-14.327 32-32s-14.327-32-32-32h-170.667zM341.333 373.333c-17.673 0-32 14.327-32 32s14.327 32 32 32h42.667c17.673 0 32-14.327 32-32s-14.327-32-32-32h-42.667zM512 373.333c-17.673 0-32 14.327-32 32s14.327 32 32 32h170.667c17.673 0 32-14.327 32-32s-14.327-32-32-32h-170.667zM341.333 245.333c-17.673 0-32 14.327-32 32s14.327 32 32 32h42.667c17.673 0 32-14.327 32-32s-14.327-32-32-32h-42.667zM512 245.333c-17.673 0-32 14.327-32 32s14.327 32 32 32h85.333c17.673 0 32-14.327 32-32s-14.327-32-32-32h-85.333zM640 501.333c-17.673 0-32 14.327-32 32s14.327 32 32 32h42.667c17.673 0 32-14.327 32-32s-14.327-32-32-32h-42.667z" />
<glyph unicode="&#xe90a;" glyph-name="icon-add-new" d="M544 480h224c17.673 0 32-14.327 32-32s-14.327-32-32-32h-224v-224c0-17.673-14.327-32-32-32s-32 14.327-32 32v224h-224c-17.673 0-32 14.327-32 32s14.327 32 32 32h224v224c0 17.673 14.327 32 32 32s32-14.327 32-32v-224z" />
<glyph unicode="&#xe90b;" glyph-name="icon-add-small" d="M544 480h181.333c17.673 0 32-14.327 32-32s-14.327-32-32-32h-181.333v-181.333c0-17.673-14.327-32-32-32s-32 14.327-32 32v181.333h-181.333c-17.673 0-32 14.327-32 32s14.327 32 32 32h181.333v181.333c0 17.673 14.327 32 32 32s32-14.327 32-32v-181.333z" />
<glyph unicode="&#xe90c;" glyph-name="icon-arrow_drop_down" d="M298.667 533.333l213.333-213.333 213.333 213.333z" />
<glyph unicode="&#xe90d;" glyph-name="icon-arrow_drop_up" d="M298.667 320l213.333 213.333 213.333-213.333z" />
<glyph unicode="&#xe90e;" glyph-name="icon-close-big" d="M512 493.255l233.373 233.373c12.497 12.497 32.758 12.497 45.255 0s12.497-32.758 0-45.255l-233.373-233.373 233.373-233.373c12.497-12.497 12.497-32.758 0-45.255s-32.758-12.497-45.255 0l-233.373 233.373-233.373-233.373c-12.497-12.497-32.758-12.497-45.255 0s-12.497 32.758 0 45.255l233.373 233.373-233.373 233.373c-12.497 12.497-12.497 32.758 0 45.255s32.758 12.497 45.255 0l233.373-233.373z" />
<glyph unicode="&#xe90f;" glyph-name="icon-close-small" d="M502.519 502.736l138.558 138.558c12.497 12.497 32.758 12.497 45.255 0s12.497-32.758 0-45.255l-138.558-138.558 138.558-138.558c12.497-12.497 12.497-32.758 0-45.255s-32.758-12.497-45.255 0l-138.558 138.558-138.558-138.558c-12.497-12.497-32.758-12.497-45.255 0s-12.497 32.758 0 45.255l138.558 138.558-138.558 138.558c-12.497 12.497-12.497 32.758 0 45.255s32.758 12.497 45.255 0l138.558-138.558z" />
<glyph unicode="&#xe910;" glyph-name="icon-delete" d="M746.029 643.556h-468.058c0.36-1.92 0.548-3.901 0.548-5.926v-493.037c0-6.835-0.984-5.926 8.843-5.926h449.276c9.827 0 8.843-0.909 8.843 5.926v493.037c0 2.025 0.188 4.006 0.548 5.926zM808.934 643.556c0.36-1.92 0.548-3.901 0.548-5.926v-493.037c0-43.361-28.75-69.926-72.843-69.926h-449.276c-44.093 0-72.843 26.565-72.843 69.926v493.037c0 2.025 0.188 4.006 0.548 5.926h-44.399c-17.673 0-32 14.327-32 32s14.327 32 32 32h158.177c-0.36 1.92-0.548 3.901-0.548 5.926v37.926c0 44.908 29.687 69.926 75.344 69.926h216.72c45.657 0 75.344-25.018 75.344-69.926v-37.926c0-2.025-0.188-4.006-0.548-5.926h158.177c17.673 0 32-14.327 32-32s-14.327-32-32-32h-44.399zM391.749 707.556h240.503c-0.36 1.92-0.548 3.901-0.548 5.926v37.926c0 6.904 1.161 5.926-11.344 5.926h-216.72c-12.505 0-11.344 0.978-11.344-5.926v-37.926c0-2.025-0.188-4.006-0.548-5.926zM352 547.556c0 17.673 14.327 32 32 32s32-14.327 32-32v-341.333c0-17.673-14.327-32-32-32s-32 14.327-32 32v341.333zM480 547.556c0 17.673 14.327 32 32 32s32-14.327 32-32v-341.333c0-17.673-14.327-32-32-32s-32 14.327-32 32v341.333zM608 547.556c0 17.673 14.327 32 32 32s32-14.327 32-32v-341.333c0-17.673-14.327-32-32-32s-32 14.327-32 32v341.333z" />
<glyph unicode="&#xe911;" glyph-name="icon-done" d="M787.801 726.386c12.364 12.629 32.624 12.843 45.252 0.48s12.843-32.624 0.48-45.252l-459.487-469.333c-13.396-13.683-35.729-12.617-47.76 2.28l-137.846 170.667c-11.105 13.749-8.961 33.896 4.787 45.001s33.896 8.961 45.001-4.787l115.247-142.687 434.326 443.633z" />
<glyph unicode="&#xe912;" glyph-name="icon-dots" d="M298.667 448.618c0 24.116 16.593 42.048 42.074 42.048 27.259 0 43.259-16.696 43.259-41.43s-15.407-43.903-41.481-43.903c-28.444 0-43.852 17.932-43.852 43.285zM469.333 448.618c0 24.116 16.593 42.048 42.074 42.048 27.259 0 43.259-16.696 43.259-41.43s-15.407-43.903-41.481-43.903c-28.444 0-43.852 17.932-43.852 43.285zM640 448.618c0 24.116 16.593 42.048 42.074 42.048 27.259 0 43.259-16.696 43.259-41.43s-15.407-43.903-41.481-43.903c-28.444 0-43.852 17.932-43.852 43.285zM810.667 448.618c0 24.116 16.593 42.048 42.074 42.048 27.259 0 43.259-16.696 43.259-41.43s-15.407-43.903-41.481-43.903c-28.444 0-43.852 17.932-43.852 43.285zM128 448.618c0 24.116 16.593 42.048 42.074 42.048 27.259 0 43.259-16.696 43.259-41.43s-15.407-43.903-41.481-43.903c-28.444 0-43.852 17.932-43.852 43.285z" />
<glyph unicode="&#xe913;" glyph-name="icon-edit" d="M823.467 759.467v0c-25.6 25.6-59.733 38.4-98.133 38.4s-72.533-12.8-93.867-42.667l-413.867-413.867c0 0-4.267-4.267-4.267-8.533l-51.2-196.267c-4.267-25.6 17.067-46.933 38.4-38.4l196.267 51.2c4.267 0 8.533 4.267 12.8 8.533l413.867 413.867c25.6 25.6 38.4 59.733 42.667 93.867 0 34.133-17.067 68.267-42.667 93.867zM234.667 170.667l34.133 136.533 17.067 12.8 98.133-98.133-12.8-12.8-136.533-38.4zM776.533 614.4l-345.6-345.6-102.4 102.4 345.6 345.6c12.8 12.8 29.867 21.333 51.2 21.333 17.067 0 38.4-8.533 51.2-21.333s21.333-29.867 21.333-51.2c0-21.333-4.267-38.4-21.333-51.2z" />
<glyph unicode="&#xe914;" glyph-name="icon-export-excel" d="M571.733 58.683c0-9.829-4.393-19.202-11.956-25.45-5.911-4.926-13.428-7.617-21.111-7.617-2.043 0-4.169 0.206-6.086 0.59l-426.655 79.998c-15.653 2.906-26.992 16.575-26.992 32.479v586.667c0 15.94 11.322 29.57 26.981 32.477l426.682 80.003c9.642 1.783 19.613-0.789 27.16-7.012 7.598-6.277 11.977-15.603 11.977-25.467v-73.6h340.267c18.255 0 33.067-14.812 33.067-33.067v-533.333c0-18.255-14.812-33.067-33.067-33.067h-340.267v-73.6zM505.6 98.554v666.925l-360.533-67.574v-531.776l360.533-67.574zM645.333 305.083c18.255 0 33.067-14.812 33.067-33.067s-14.812-33.067-33.067-33.067h-73.6v-40.533h307.2v467.2h-307.2v-40.533h73.6c18.255 0 33.067-14.812 33.067-33.067s-14.812-33.067-33.067-33.067h-73.6v-40.533h73.6c18.255 0 33.067-14.812 33.067-33.067s-14.812-33.067-33.067-33.067h-73.6v-40.533h73.6c18.255 0 33.067-14.812 33.067-33.067s-14.812-33.067-33.067-33.067h-73.6v-40.533h73.6zM805.333 625.083c18.255 0 33.067-14.812 33.067-33.067s-14.812-33.067-33.067-33.067h-53.333c-18.255 0-33.067 14.812-33.067 33.067s14.812 33.067 33.067 33.067h53.333zM805.333 518.417c18.255 0 33.067-14.812 33.067-33.067s-14.812-33.067-33.067-33.067h-53.333c-18.255 0-33.067 14.812-33.067 33.067s14.812 33.067 33.067 33.067h53.333zM805.333 411.75c18.255 0 33.067-14.812 33.067-33.067s-14.812-33.067-33.067-33.067h-53.333c-18.255 0-33.067 14.812-33.067 33.067s14.812 33.067 33.067 33.067h53.333zM805.333 305.083c18.255 0 33.067-14.812 33.067-33.067s-14.812-33.067-33.067-33.067h-53.333c-18.255 0-33.067 14.812-33.067 33.067s14.812 33.067 33.067 33.067h53.333zM271.399 304.994c-6.308-8.111-15.972-12.711-26.065-12.711-7.283 0-14.379 2.377-20.295 6.942-14.414 11.174-17.014 31.993-5.824 46.427l71.11 91.428-69.852 79.83c-12.048 13.703-10.656 34.608 3.087 46.632 13.716 12.059 34.555 10.692 46.696-3.099l61.422-70.196 74.217 95.422c11.272 14.389 32.050 17.007 46.399 5.751 14.428-11.185 17.004-31.956 5.771-46.427l-82.019-105.453 80.877-92.43c12.034-13.753 10.645-34.597-3.137-46.656-6.17-5.334-13.857-8.172-21.786-8.172-9.451 0-18.495 4.029-24.87 11.306l-72.437 82.785-63.295-81.379z" />
<glyph unicode="&#xe915;" glyph-name="icon-filter" d="M804.699 696.958c6.781 9.414 7.872 22.009 2.818 32.535s-15.386 17.174-26.688 17.174h-537.656c-11.302 0-21.634-6.649-26.688-17.174s-3.964-23.121 2.818-32.535l232.977-285.934v-273.289c0-11.768 6.385-22.525 16.494-27.788s22.206-4.127 31.247 2.934l59.677 46.602c7.513 5.867 11.935 15.075 11.935 24.854v226.718l233.067 285.903zM635.632 184.337c0-29.34-13.383-57.209-36.545-75.296l-59.677-46.602c-28.759-22.458-67.799-26.123-100.191-9.26-31.493 16.395-50.941 49.159-50.941 84.556v250.528l-220.908 271.289c-20.503 28.464-23.757 66.040-8.58 97.646 15.599 32.484 48.21 53.469 84.381 53.469h537.656c36.171 0 68.782-20.985 84.381-53.469 15.177-31.606 11.923-69.181-8.58-97.646l-2.325-3.032-218.673-268.245v-203.937z" />
<glyph unicode="&#xe916;" glyph-name="icon-long-arrow-left" d="M333.255 480l116.039 116.039c12.497 12.497 12.497 32.758 0 45.255s-32.758 12.497-45.255 0l-170.667-170.667c-12.497-12.497-12.497-32.758 0-45.255l170.667-170.667c12.497-12.497 32.758-12.497 45.255 0s12.497 32.758 0 45.255l-116.039 116.039h434.745c17.673 0 32 14.327 32 32s-14.327 32-32 32h-434.745z" />
<glyph unicode="&#xe917;" glyph-name="icon-more" d="M256 533.333c46.933 0 85.333-38.4 85.333-85.333s-38.4-85.333-85.333-85.333c-46.933 0-85.333 38.4-85.333 85.333s38.4 85.333 85.333 85.333zM768 533.333c46.933 0 85.333-38.4 85.333-85.333s-38.4-85.333-85.333-85.333c-46.933 0-85.333 38.4-85.333 85.333s38.4 85.333 85.333 85.333zM512 533.333c46.933 0 85.333-38.4 85.333-85.333s-38.4-85.333-85.333-85.333c-46.933 0-85.333 38.4-85.333 85.333s38.4 85.333 85.333 85.333z" />
<glyph unicode="&#xe918;" glyph-name="icon-notification" d="M635.967 144c-14.209-55.207-64.325-96-123.967-96s-109.758 40.793-123.967 96h-244.033v64c35.346 0 64 28.654 64 64v208.011c0.043 121.155 71.981 230.091 181.994 278.193 16.68 52.353 65.578 89.054 121.942 89.054s105.263-36.701 121.943-89.055c110.016-48.107 181.988-157.012 182.121-278.204v-208c0-35.346 28.654-64 64-64v-64h-244.033zM567.438 144h-110.876c11.066-19.13 31.749-32 55.438-32s44.372 12.87 55.438 32zM880 208c42.667 0 42.667-64 0-64-47.378 0-88.744 25.741-110.876 64h110.876zM752 272v207.965c-0.11 100.228-62.493 189.834-156.452 224.725-10.788 4.006-18.595 13.497-20.444 24.855-5.043 30.968-31.792 53.714-63.168 53.714s-58.125-22.746-63.168-53.714c-1.85-11.359-9.657-20.85-20.446-24.856-93.941-34.877-156.286-124.494-156.322-224.689v-208c0-23.314-6.233-45.173-17.124-64h514.248c-10.891 18.827-17.124 40.686-17.124 64zM144 144c-42.667 0-42.667 64 0 64h110.876c-22.132-38.259-63.498-64-110.876-64z" />
<glyph unicode="&#xe919;" glyph-name="icon-refresh" d="M276.5 608.057h126.463c17.673 0 32-14.327 32-32s-14.327-32-32-32h-197.187c-7.152-0.434-14.493 1.518-20.741 6.061-6.505 4.729-10.704 11.451-12.37 18.719-0.531 2.321-0.814 4.737-0.814 7.22v199.111c0 17.673 14.327 32 32 32s32-14.327 32-32v-117.64c123.855 105.955 308.113 118.354 446.74 19.85 93.864-67.070 149.809-175.022 150.489-290.299s-53.988-223.882-146.986-292.005c-14.257-10.444-34.281-7.352-44.725 6.905s-7.352 34.281 6.905 44.725c76.434 55.99 121.366 145.251 120.807 239.997s-46.54 183.471-123.63 238.555c-114.51 81.368-266.896 70.837-368.952-17.199z" />
<glyph unicode="&#xe91a;" glyph-name="icon-reorder" d="M597.333 704c0-46.933-38.4-85.333-85.333-85.333s-85.333 38.4-85.333 85.333c0 46.933 38.4 85.333 85.333 85.333s85.333-38.4 85.333-85.333zM597.333 192c0-46.933-38.4-85.333-85.333-85.333s-85.333 38.4-85.333 85.333c0 46.933 38.4 85.333 85.333 85.333s85.333-38.4 85.333-85.333zM597.333 448c0-46.933-38.4-85.333-85.333-85.333s-85.333 38.4-85.333 85.333c0 46.933 38.4 85.333 85.333 85.333s85.333-38.4 85.333-85.333z" />
<glyph unicode="&#xe91b;" glyph-name="icon-search" d="M748.844 271.496l161.326-161.326c16.662-16.662 16.662-43.677 0-60.34s-43.677-16.662-60.34 0l-161.326 161.326c-61.751-48.737-139.731-77.823-224.504-77.823-200.295 0-362.667 162.371-362.667 362.667s162.371 362.667 362.667 362.667c200.295 0 362.667-162.371 362.667-362.667 0-84.773-29.086-162.753-77.823-224.504zM660.444 300.236c49.988 50.16 80.889 119.353 80.889 195.764 0 153.167-124.166 277.333-277.333 277.333s-277.333-124.166-277.333-277.333c0-153.167 124.166-277.333 277.333-277.333 76.411 0 145.604 30.902 195.764 80.889 0.112 0.114 0.225 0.228 0.338 0.342s0.227 0.226 0.342 0.338z" />
<glyph unicode="&#xe91c;" glyph-name="icon-settings" d="M898.165 372.124c19.711-15.561 24.848-43.060 12.484-65.706l-76.412-132.173c-12.336-22.616-39.359-32.245-63.442-22.82l-79.357 31.87c-13.147-8.93-26.453-16.726-40.052-23.367l-12.017-83.769c-3.179-25.432-25.027-44.159-50.569-44.159h-153.6c-25.542 0-47.39 18.727-50.492 43.586l-12.088 84.299c-13.885 6.721-27.272 14.509-40.203 23.356l-80.201-32.194c-23.242-8.452-50.202 0.739-62.064 22.507l-77.188 133.555c-11.976 21.956-6.839 49.454 12.988 65.107l67.061 52.441c-0.669 8.123-1.012 15.78-1.012 23.343s0.344 15.22 1.012 23.344l-67.177 52.532c-19.9 15.71-25.45 43.768-12.484 65.706l76.412 132.173c12.336 22.616 39.359 32.245 63.442 22.82l79.357-31.87c13.147 8.93 26.453 16.726 40.052 23.367l12.017 83.769c3.179 25.432 25.027 44.159 50.569 44.159h153.6c25.542 0 47.39-18.727 50.492-43.586l12.088-84.299c13.885-6.721 27.272-14.509 40.203-23.356l80.201 32.194c23.242 8.452 50.202-0.739 62.064-22.507l77.188-133.555c11.976-21.956 6.839-49.454-12.988-65.107l-67.050-52.433c0.668-8.069 1.002-15.626 1.002-23.352s-0.334-15.283-1.002-23.352l67.167-52.524zM777.6 385.16c-8.865 6.932-13.436 18.011-12.041 29.177 1.654 13.229 2.441 23.463 2.441 33.663s-0.787 20.434-2.441 33.663c-1.396 11.166 3.176 22.245 12.041 29.177l72.067 56.356-65.711 113.697-84.926-34.107c-10.507-4.22-22.462-2.573-31.436 4.331-18.156 13.966-37.224 25.068-57.52 33.386-10.496 4.302-17.931 13.839-19.541 25.068l-12.963 90.43h-131.134l-12.967-90.43c-1.61-11.229-9.045-20.766-19.541-25.068-19.506-7.994-38.583-19.186-57.831-33.622-8.947-6.71-20.748-8.263-31.126-4.095l-84.917 34.105-65.72-113.694 72.068-56.356c8.865-6.932 13.436-18.011 12.041-29.177-1.622-12.974-2.441-23.705-2.441-33.663s0.819-20.689 2.441-33.663c1.396-11.166-3.176-22.245-12.041-29.177l-72.067-56.356 65.711-113.697 84.926 34.107c10.507 4.22 22.462 2.573 31.436-4.331 18.156-13.966 37.224-25.068 57.52-33.386 10.496-4.302 17.931-13.839 19.541-25.068l12.963-90.43h131.134l12.967 90.43c1.61 11.229 9.045 20.766 19.541 25.068 19.506 7.994 38.583 19.186 57.831 33.622 8.947 6.71 20.748 8.263 31.126 4.095l84.918-34.105 65.726 113.689-72.074 56.361zM512 345.6c56.439 0 102.4 45.961 102.4 102.4s-45.961 102.4-102.4 102.4c-56.439 0-102.4-45.961-102.4-102.4s45.961-102.4 102.4-102.4zM512 281.6c-91.785 0-166.4 74.615-166.4 166.4s74.615 166.4 166.4 166.4c91.785 0 166.4-74.615 166.4-166.4s-74.615-166.4-166.4-166.4z" />
<glyph unicode="&#xe91d;" glyph-name="icon-share" d="M751.971 368c17.673 0.016 32.013-14.298 32.029-31.971s-14.298-32.013-31.971-32.029c-36.349-0.033-69.561-20.592-85.8-53.112-7.899-15.818-27.128-22.233-42.941-14.325l-251.232 125.632c-15.854 7.928-22.243 27.234-14.248 43.054 13.59 26.891 13.59 58.641 0 85.533-7.996 15.822-1.606 35.129 14.251 43.056l251.232 125.6c15.813 7.905 35.040 1.49 42.938-14.326 16.239-32.52 49.451-53.079 85.8-53.112 17.673-0.016 31.987-14.356 31.971-32.029s-14.356-31.987-32.029-31.971c-49.698 0.045-95.878 23.113-125.808 61.322l-199.673-99.824c7.348-27.158 7.348-55.809-0.001-82.967l199.676-99.851c29.93 38.207 76.11 61.274 125.806 61.32zM751.922 528c-17.673 0.043-31.965 14.405-31.922 32.078s14.405 31.965 32.078 31.922c43.090-0.106 81.007 28.421 92.848 69.852s-5.277 85.686-41.915 108.366c-36.638 22.68-83.883 18.266-115.686-10.807s-40.428-75.733-21.118-114.255c7.92-15.799 1.532-35.027-14.267-42.947s-35.027-1.532-42.947 14.267c-32.14 64.117-17.786 141.779 35.15 190.171s131.571 55.738 192.554 17.988c60.983-37.75 89.474-111.41 69.766-180.37s-82.82-116.441-154.541-116.266zM608.975 279.52c7.9 15.809 27.12 22.221 42.929 14.321s22.221-27.12 14.321-42.929c-19.186-38.394-10.555-84.858 21.139-113.801s78.749-33.331 115.248-10.748c36.499 22.583 53.573 66.65 41.817 107.93s-49.484 69.74-92.404 69.707c-17.673-0.014-32.011 14.302-32.025 31.975s14.302 32.011 31.975 32.025c71.535 0.056 134.415-47.378 154.007-116.178s-8.863-142.244-69.695-179.883c-60.832-37.639-139.256-30.326-192.080 17.913s-67.208 125.678-35.232 189.669zM414.997 519.512c7.895-15.811 1.478-35.030-14.333-42.925s-35.030-1.478-42.925 14.333c-19.895 39.841-64.576 60.77-107.919 50.55s-73.968-48.906-73.968-93.438c0-44.532 30.625-83.218 73.968-93.438s88.025 10.709 107.919 50.55c7.895 15.811 27.114 22.229 42.925 14.333s22.229-27.114 14.333-42.925c-33.158-66.401-107.627-101.283-179.866-84.249s-123.28 81.509-123.28 155.729c0 74.22 51.041 138.696 123.28 155.729s146.708-17.848 179.866-84.249z" />
<glyph unicode="&#xe91e;" glyph-name="icon-star" d="M653.826 622.441l237.375-20.469c13.809-1.191 26.612-7.711 35.697-18.178 19.307-22.245 16.924-55.93-5.321-75.237l-179.919-156.15 53.797-232.020c3.134-13.518 0.877-27.725-6.294-39.606-15.221-25.218-48.002-33.322-73.22-18.102l-203.941 123.090-203.859-123.041c-11.902-7.183-26.138-9.436-39.676-6.278-28.685 6.692-46.514 35.37-39.822 64.055l54.099 231.901-180.145 156.060c-10.508 9.103-17.046 21.949-18.221 35.802-2.49 29.35 19.284 55.161 48.634 57.651l237.164 20.121 92.736 218.804c5.398 12.736 15.533 22.877 28.266 28.281 27.114 11.509 58.424-1.141 69.933-28.255l92.718-218.431zM629.144 560.332c-11.803 1.018-22.078 8.473-26.707 19.378l-90.415 213.006-90.453-213.417c-4.632-10.928-14.931-18.395-26.758-19.398l-231.201-19.615 175.635-152.153c8.978-7.778 12.909-19.889 10.211-31.456l-52.744-226.092 198.752 119.959c10.169 6.138 22.902 6.138 33.071 0l198.874-120.032-52.449 226.208c-2.677 11.546 1.247 23.626 10.198 31.395l175.436 152.259-231.451 19.958z" />
<glyph unicode="&#xe91f;" glyph-name="icon-tabs-arrow-reg" d="M634.846 434.667l-202.738-193.333c-3.436-4.444-8.018-6.667-13.745-6.667s-10.881 1.667-15.463 5l-12.027 13.333c-4.582 3.333-6.872 7.778-6.872 13.333s2.291 10.556 6.872 15l175.248 166.667-175.248 166.667c-3.436 4.444-5.154 9.444-5.154 15s1.718 10 5.154 13.333l12.027 13.333c4.582 3.333 9.736 5 15.463 5s10.309-1.667 13.745-5l202.738-193.333c3.436-4.444 5.154-9.444 5.154-15s-1.718-10.556-5.154-15v1.667z" />
<glyph unicode="&#xe920;" glyph-name="question-circle" d="M416 575.994c-0.003-17.673-14.333-31.997-32.006-31.994s-31.997 14.333-31.994 32.006c0.016 81.364 61.091 149.759 141.934 158.946s155.708-43.761 173.979-123.047c18.271-79.286-25.87-159.658-102.58-186.779-12.791-4.522-21.34-16.619-21.333-30.203v-42.923c0-17.673-14.327-32-32-32s-32 14.327-32 32v42.906c-0.021 40.702 25.626 76.993 64 90.56 46.026 16.273 72.511 64.496 61.548 112.068s-55.881 79.34-104.388 73.828c-48.506-5.512-85.151-46.549-85.161-95.368zM512 256c26.51 0 48-21.49 48-48s-21.49-48-48-48c-26.51 0-48 21.49-48 48 0 26.503 21.48 47.99 47.981 48 0.006 0 0.013 0 0.019 0zM512-64c-282.77 0-512 229.23-512 512s229.23 512 512 512c282.77 0 512-229.23 512-512s-229.23-512-512-512zM512 0c247.424 0 448 200.576 448 448s-200.576 448-448 448c-247.424 0-448-200.576-448-448s200.576-448 448-448z" />
<glyph unicode="&#xe921;" glyph-name="search-between-v4" d="M328.837 307.503c16.662-16.662 16.662-43.677 0-60.34s-43.677-16.662-60.34 0l-170.667 170.667c-16.662 16.662-16.662 43.677 0 60.34l170.667 170.667c16.662 16.662 43.677 16.662 60.34 0s16.662-43.677 0-60.34l-140.497-140.497 140.497-140.497zM695.163 307.503l140.497 140.497-140.497 140.497c-16.662 16.662-16.662 43.677 0 60.34s43.677 16.662 60.34 0l170.667-170.667c16.662-16.662 16.662-43.677 0-60.34l-170.667-170.667c-16.662-16.662-43.677-16.662-60.34 0s-16.662 43.677 0 60.34zM512 320c-70.692 0-128 57.308-128 128s57.308 128 128 128c70.692 0 128-57.308 128-128s-57.308-128-128-128z" />
<glyph unicode="&#xe922;" glyph-name="ends-with" d="M340.958 746.667h682.667v-597.333h-682.667v597.333zM927.083 516.167c-12 6.667-24.083 11.583-36.25 14.75s-24.667 4.75-37.5 4.75c-38 0-69.5-11.583-94.5-34.75s-37.5-52.166-37.5-87c0-35.667 12.625-64.833 37.875-87.5s58.041-34 98.375-34c32.667 0 60.875 6.167 84.625 18.5s35.625 26.333 35.625 42c0 7.167-2.042 13.125-6.125 17.875s-9.208 7.125-15.375 7.125c-4.333 0-16.208-5.458-35.625-16.375s-38.958-16.375-58.625-16.375c-21.667 0-38.917 6.333-51.75 19s-19.25 29.417-19.25 50.25c0 19.833 6.208 36.125 18.625 48.875s28.375 19.125 47.875 19.125c15.667 0 28.917-2.708 39.75-8.125s19.583-13.792 26.25-25.125c4.667-8 9.083-13.417 13.25-16.25s9.333-4.25 15.5-4.25c8.667 0 15.083 2.417 19.25 7.25s6.25 12.333 6.25 22.5v41c0 13.333-1.917 22.708-5.75 28.125s-10.25 8.125-19.25 8.125c-6.667 0-12.125-1.625-16.375-4.875s-7.375-8.125-9.375-14.625zM521.75 476.417c16.333 0 29.917-6.167 40.75-18.5s16.25-27.833 16.25-46.5c0-19.167-5.375-34.917-16.125-47.25s-24.375-18.5-40.875-18.5c-16.5 0-30.083 6.125-40.75 18.375s-16 28.042-16 47.375c0 18.833 5.375 34.375 16.125 46.625s24.292 18.375 40.625 18.375zM466.5 507.167v102.25c0 5.833-1.208 10.042-3.625 12.625s-6.292 3.875-11.625 3.875h-46.75c-11.5 0-19.667-2.167-24.5-6.5s-7.25-11.417-7.25-21.25c0-9 2.375-15.875 7.125-20.625s11.625-7.125 20.625-7.125h4v-217h-4c-9 0-15.792-2.292-20.375-6.875s-6.875-11.292-6.875-20.125c0-10 2.375-17.125 7.125-21.375s12.792-6.375 24.125-6.375h38.5c4.667 0 8.292 0.958 10.875 2.875s3.875 4.542 3.875 7.875v16.5c7.5-11.167 17.208-19.542 29.125-25.125s25.958-8.375 42.125-8.375c34.167 0 62.5 10.958 85 32.875s33.75 49.208 33.75 81.875c0 35.834-11.042 65.208-33.125 88.125s-50.458 34.375-85.125 34.375c-12 0-23.5-2-34.5-6s-20.5-9.5-28.5-16.5zM272.167 353.417h4c9 0 15.875-2.375 20.625-7.125s7.125-11.542 7.125-20.375c0-9.667-2.458-16.625-7.375-20.875s-13.042-6.375-24.375-6.375h-23.5c-8.333 0-14.542 1.583-18.625 4.75s-7.458 8.917-10.125 17.25c-13.833-9.167-28.5-16.167-44-21s-31.167-7.25-47-7.25c-26.833 0-47.917 6.667-63.25 20s-23 31.583-23 54.75c0 25 9.917 44.417 29.75 58.25s47.666 20.75 83.5 20.75c8 0 16.5-0.417 25.5-1.25s19.083-2.167 30.25-4v4.75c0 15-3.625 26.417-10.875 34.25s-17.958 11.75-32.125 11.75c-11 0-25.042-4.083-42.125-12.25s-29.625-12.25-37.625-12.25c-7.833 0-14.167 2.292-19 6.875s-7.25 10.625-7.25 18.125c0 13.5 9.875 24.208 29.625 32.125s46.625 11.875 80.625 11.875c35.5 0 60.917-6.833 76.25-20.5s23-36.833 23-69.5v-92.75zM211.667 401.667c-8.333 1.833-16 3.208-23 4.125s-13.5 1.375-19.5 1.375c-18.333 0-32.708-3.083-43.125-9.25s-15.625-14.667-15.625-25.5c0-9.667 3.333-17.042 10-22.125s16.25-7.625 28.75-7.625c11.5 0 22.333 1.667 32.5 5s20.167 8.5 30 15.5v38.5z" />
<glyph unicode="&#xe923;" glyph-name="search-equal" d="M768 597.333c23.564 0 42.667-19.103 42.667-42.667s-19.103-42.667-42.667-42.667h-512c-23.564 0-42.667 19.103-42.667 42.667s19.103 42.667 42.667 42.667h512zM768 298.667h-512c-56.889 0-56.889 85.333 0 85.333h512c56.889 0 56.889-85.333 0-85.333z" />
<glyph unicode="&#xe924;" glyph-name="search-not-equal" d="M447.299 384l-26.667-85.333h-164.632v85.333h191.299l40 128h-231.299c-23.564 0-42.667 19.103-42.667 42.667s19.103 42.667 42.667 42.667h257.965l63.977 204.726c7.029 22.492 30.959 35.027 53.451 27.998s35.027-30.959 27.998-53.451l-56.023-179.274h164.632c23.564 0 42.667-19.103 42.667-42.667s-19.103-42.667-42.667-42.667h-191.299l-40-128h231.299c56.889 0 56.889-85.333 0-85.333h-257.965l26.667 85.333h231.299v-85.333h-257.965l-63.977-204.726c-7.029-22.492-30.959-35.027-53.451-27.998s-35.027 30.959-27.998 53.451l56.023 179.274h-164.632c-56.889 0-56.889 85.333 0 85.333h191.299z" />
<glyph unicode="&#xe925;" glyph-name="icon-long-arrow-right" d="M690.745 480l-116.039 116.039c-12.497 12.497-12.497 32.758 0 45.255s32.758 12.497 45.255 0l170.667-170.667c12.497-12.497 12.497-32.758 0-45.255l-170.667-170.667c-12.497-12.497-32.758-12.497-45.255 0s-12.497 32.758 0 45.255l116.039 116.039h-434.745c-17.673 0-32 14.327-32 32s14.327 32 32 32h434.745z" />
<glyph unicode="&#xe926;" glyph-name="header-search" d="M480 232.533c-136.672 0-247.467 110.795-247.467 247.467s110.795 247.467 247.467 247.467c136.672 0 247.467-110.795 247.467-247.467s-110.795-247.467-247.467-247.467zM480 300.8c98.969 0 179.2 80.231 179.2 179.2s-80.231 179.2-179.2 179.2c-98.969 0-179.2-80.231-179.2-179.2s80.231-179.2 179.2-179.2zM781.469 226.803c13.33-13.33 13.33-34.942 0-48.272s-34.942-13.33-48.272 0l-126.485 126.485c-13.33 13.33-13.33 34.942 0 48.272s34.942 13.33 48.272 0l126.485-126.485z" />
<glyph unicode="&#xe927;" glyph-name="greater-then-or-equal" d="M439.163 673.83c-16.662 16.662-16.662 43.677 0 60.34s43.677 16.662 60.34 0l170.667-170.667c16.662-16.662 16.662-43.677 0-60.34l-170.667-170.667c-16.662-16.662-43.677-16.662-60.34 0s-16.662 43.677 0 60.34l140.497 140.497-140.497 140.497zM298.667 106.667c-23.564 0-42.667 19.103-42.667 42.667s19.103 42.667 42.667 42.667h426.667c23.564 0 42.667-19.103 42.667-42.667s-19.103-42.667-42.667-42.667h-426.667z" />
<glyph unicode="&#xe928;" glyph-name="less-then-or-equal" d="M584.837 392.837c16.662-16.662 16.662-43.677 0-60.34s-43.677-16.662-60.34 0l-170.667 170.667c-16.662 16.662-16.662 43.677 0 60.34l170.667 170.667c16.662 16.662 43.677 16.662 60.34 0s16.662-43.677 0-60.34l-140.497-140.497 140.497-140.497zM298.667 106.667c-23.564 0-42.667 19.103-42.667 42.667s19.103 42.667 42.667 42.667h426.667c23.564 0 42.667-19.103 42.667-42.667s-19.103-42.667-42.667-42.667h-426.667z" />
<glyph unicode="&#xe929;" glyph-name="search-contains-v2" d="M340.958 746.667h341.333v-597.333h-341.333v597.333zM521.75 476.417c16.333 0 29.917-6.167 40.75-18.5s16.25-27.833 16.25-46.5c0-19.167-5.375-34.917-16.125-47.25s-24.375-18.5-40.875-18.5c-16.5 0-30.083 6.125-40.75 18.375s-16 28.042-16 47.375c0 18.833 5.375 34.375 16.125 46.625s24.292 18.375 40.625 18.375zM466.5 507.167v102.25c0 5.833-1.208 10.042-3.625 12.625s-6.292 3.875-11.625 3.875h-46.75c-11.5 0-19.667-2.167-24.5-6.5s-7.25-11.417-7.25-21.25c0-9 2.375-15.875 7.125-20.625s11.625-7.125 20.625-7.125h4v-217h-4c-9 0-15.792-2.292-20.375-6.875s-6.875-11.292-6.875-20.125c0-10 2.375-17.125 7.125-21.375s12.792-6.375 24.125-6.375h38.5c4.667 0 8.292 0.958 10.875 2.875s3.875 4.542 3.875 7.875v16.5c7.5-11.167 17.208-19.542 29.125-25.125s25.958-8.375 42.125-8.375c34.167 0 62.5 10.958 85 32.875s33.75 49.208 33.75 81.875c0 35.834-11.042 65.208-33.125 88.125s-50.458 34.375-85.125 34.375c-12 0-23.5-2-34.5-6s-20.5-9.5-28.5-16.5zM927.083 516.167c2 6.5 5.125 11.375 9.375 14.625s9.708 4.875 16.375 4.875c9 0 15.417-2.708 19.25-8.125s5.75-14.792 5.75-28.125v-41c0-10.167-2.083-17.667-6.25-22.5s-10.583-7.25-19.25-7.25c-6.167 0-11.333 1.417-15.5 4.25s-8.583 8.25-13.25 16.25c-6.667 11.333-15.417 19.708-26.25 25.125s-24.083 8.125-39.75 8.125c-19.5 0-35.458-6.375-47.875-19.125s-18.625-29.042-18.625-48.875c0-20.833 6.417-37.583 19.25-50.25s30.083-19 51.75-19c19.667 0 39.208 5.458 58.625 16.375s31.292 16.375 35.625 16.375c6.167 0 11.292-2.375 15.375-7.125s6.125-10.708 6.125-17.875c0-15.667-11.875-29.667-35.625-42s-51.958-18.5-84.625-18.5c-40.334 0-73.125 11.333-98.375 34s-37.875 51.833-37.875 87.5c0 34.834 12.5 63.833 37.5 87s56.5 34.75 94.5 34.75c12.833 0 25.333-1.583 37.5-4.75s24.25-8.083 36.25-14.75zM272.167 353.417h4c9 0 15.875-2.375 20.625-7.125s7.125-11.542 7.125-20.375c0-9.667-2.458-16.625-7.375-20.875s-13.042-6.375-24.375-6.375h-23.5c-8.333 0-14.542 1.583-18.625 4.75s-7.458 8.917-10.125 17.25c-13.833-9.167-28.5-16.167-44-21s-31.167-7.25-47-7.25c-26.833 0-47.917 6.667-63.25 20s-23 31.583-23 54.75c0 25 9.917 44.417 29.75 58.25s47.666 20.75 83.5 20.75c8 0 16.5-0.417 25.5-1.25s19.083-2.167 30.25-4v4.75c0 15-3.625 26.417-10.875 34.25s-17.958 11.75-32.125 11.75c-11 0-25.042-4.083-42.125-12.25s-29.625-12.25-37.625-12.25c-7.833 0-14.167 2.292-19 6.875s-7.25 10.625-7.25 18.125c0 13.5 9.875 24.208 29.625 32.125s46.625 11.875 80.625 11.875c35.5 0 60.917-6.833 76.25-20.5s23-36.833 23-69.5v-92.75zM211.667 401.667c-8.333 1.833-16 3.208-23 4.125s-13.5 1.375-19.5 1.375c-18.333 0-32.708-3.083-43.125-9.25s-15.625-14.667-15.625-25.5c0-9.667 3.333-17.042 10-22.125s16.25-7.625 28.75-7.625c11.5 0 22.333 1.667 32.5 5s20.167 8.5 30 15.5v38.5z" />
<glyph unicode="&#xe92a;" glyph-name="greater-then" d="M396.497 307.503c-16.662-16.662-16.662-43.677 0-60.34s43.677-16.662 60.34 0l170.667 170.667c16.662 16.662 16.662 43.677 0 60.34l-170.667 170.667c-16.662 16.662-43.677 16.662-60.34 0s-16.662-43.677 0-60.34l140.497-140.497-140.497-140.497z" />
<glyph unicode="&#xe92b;" glyph-name="less-then" d="M627.503 307.503c16.662-16.662 16.662-43.677 0-60.34s-43.677-16.662-60.34 0l-170.667 170.667c-16.662 16.662-16.662 43.677 0 60.34l170.667 170.667c16.662 16.662 43.677 16.662 60.34 0s16.662-43.677 0-60.34l-140.497-140.497 140.497-140.497z" />
<glyph unicode="&#xe92c;" glyph-name="more-dots" d="M256 533.333c-46.933 0-85.333-38.4-85.333-85.333s38.4-85.333 85.333-85.333c46.933 0 85.333 38.4 85.333 85.333s-38.4 85.333-85.333 85.333zM768 533.333c-46.933 0-85.333-38.4-85.333-85.333s38.4-85.333 85.333-85.333c46.933 0 85.333 38.4 85.333 85.333s-38.4 85.333-85.333 85.333zM512 533.333c-46.933 0-85.333-38.4-85.333-85.333s38.4-85.333 85.333-85.333c46.933 0 85.333 38.4 85.333 85.333s-38.4 85.333-85.333 85.333z" />
<glyph unicode="&#xe92d;" glyph-name="starts-with" d="M0 746.667h682.667v-597.333h-682.667v597.333zM272.542 353.417v92.75c0 32.667-7.667 55.833-23 69.5s-40.75 20.5-76.25 20.5c-34 0-60.875-3.958-80.625-11.875s-29.625-18.625-29.625-32.125c0-7.5 2.417-13.542 7.25-18.125s11.167-6.875 19-6.875c8 0 20.542 4.083 37.625 12.25s31.125 12.25 42.125 12.25c14.167 0 24.875-3.917 32.125-11.75s10.875-19.25 10.875-34.25v-4.75c-11.167 1.833-21.25 3.167-30.25 4s-17.5 1.25-25.5 1.25c-35.834 0-63.667-6.917-83.5-20.75s-29.75-33.25-29.75-58.25c0-23.167 7.667-41.417 23-54.75s36.417-20 63.25-20c15.833 0 31.5 2.417 47 7.25s30.167 11.833 44 21c2.667-8.333 6.042-14.083 10.125-17.25s10.292-4.75 18.625-4.75h23.5c11.333 0 19.458 2.125 24.375 6.375s7.375 11.208 7.375 20.875c0 8.833-2.375 15.625-7.125 20.375s-11.625 7.125-20.625 7.125h-4zM212.042 401.667v-38.5c-9.833-7-19.833-12.167-30-15.5s-21-5-32.5-5c-12.5 0-22.083 2.542-28.75 7.625s-10 12.458-10 22.125c0 10.833 5.208 19.333 15.625 25.5s24.792 9.25 43.125 9.25c6 0 12.5-0.458 19.5-1.375s14.667-2.292 23-4.125zM522.125 476.417c16.333 0 29.917-6.167 40.75-18.5s16.25-27.833 16.25-46.5c0-19.167-5.375-34.917-16.125-47.25s-24.375-18.5-40.875-18.5c-16.5 0-30.083 6.125-40.75 18.375s-16 28.042-16 47.375c0 18.833 5.375 34.375 16.125 46.625s24.292 18.375 40.625 18.375zM466.875 507.167v102.25c0 5.833-1.208 10.042-3.625 12.625s-6.292 3.875-11.625 3.875h-46.75c-11.5 0-19.667-2.167-24.5-6.5s-7.25-11.417-7.25-21.25c0-9 2.375-15.875 7.125-20.625s11.625-7.125 20.625-7.125h4v-217h-4c-9 0-15.792-2.292-20.375-6.875s-6.875-11.292-6.875-20.125c0-10 2.375-17.125 7.125-21.375s12.792-6.375 24.125-6.375h38.5c4.667 0 8.292 0.958 10.875 2.875s3.875 4.542 3.875 7.875v16.5c7.5-11.167 17.208-19.542 29.125-25.125s25.958-8.375 42.125-8.375c34.167 0 62.5 10.958 85 32.875s33.75 49.208 33.75 81.875c0 35.834-11.042 65.208-33.125 88.125s-50.458 34.375-85.125 34.375c-12 0-23.5-2-34.5-6s-20.5-9.5-28.5-16.5zM927.458 516.167c2 6.5 5.125 11.375 9.375 14.625s9.708 4.875 16.375 4.875c9 0 15.417-2.708 19.25-8.125s5.75-14.792 5.75-28.125v-41c0-10.167-2.083-17.667-6.25-22.5s-10.583-7.25-19.25-7.25c-6.167 0-11.333 1.417-15.5 4.25s-8.583 8.25-13.25 16.25c-6.667 11.333-15.417 19.708-26.25 25.125s-24.083 8.125-39.75 8.125c-19.5 0-35.458-6.375-47.875-19.125s-18.625-29.042-18.625-48.875c0-20.833 6.417-37.583 19.25-50.25s30.083-19 51.75-19c19.667 0 39.208 5.458 58.625 16.375s31.292 16.375 35.625 16.375c6.167 0 11.292-2.375 15.375-7.125s6.125-10.708 6.125-17.875c0-15.667-11.875-29.667-35.625-42s-51.958-18.5-84.625-18.5c-40.334 0-73.125 11.333-98.375 34s-37.875 51.833-37.875 87.5c0 34.834 12.5 63.833 37.5 87s56.5 34.75 94.5 34.75c12.833 0 25.333-1.583 37.5-4.75s24.25-8.083 36.25-14.75z" />
<glyph unicode="&#xe92e;" glyph-name="three_dots" d="M426.667 704c0 47.147 38.144 85.333 85.333 85.333 47.147 0 85.333-38.187 85.333-85.333 0-47.104-38.187-85.333-85.333-85.333-47.189 0-85.333 38.229-85.333 85.333zM426.667 448c0 47.147 38.144 85.333 85.333 85.333 47.147 0 85.333-38.187 85.333-85.333 0-47.104-38.187-85.333-85.333-85.333-47.189 0-85.333 38.229-85.333 85.333zM426.667 192c0 47.147 38.144 85.333 85.333 85.333 47.147 0 85.333-38.187 85.333-85.333 0-47.104-38.187-85.333-85.333-85.333-47.189 0-85.333 38.229-85.333 85.333z" />
<glyph unicode="&#xe92f;" glyph-name="alert" d="M719.253 419.219l10.37 139.564 239.874-392.521c33.239-54.391-5.906-124.187-69.648-124.187h-775.43c-63.743 0-102.887 69.797-69.648 124.187l232.835 381.002 10.37-139.564-173.556-284.002h775.43l-180.596 295.521zM438.715 716.69v100.876c0 31.405 19.033 57.1 68.52 57.1 51.39 0 70.423-26.647 70.423-59.003v-98.973l-22.84-307.387h-93.263l-22.84 307.387zM426.343 292.248c0 39.018 30.453 74.23 78.036 74.23 52.342 0 80.891-32.357 80.891-75.181 0-38.067-27.598-75.181-78.036-75.181-53.293 0-80.891 34.26-80.891 76.133z" />
<glyph unicode="&#xe930;" glyph-name="check_green" d="M512-64c-282.77 0-512 229.23-512 512s229.23 512 512 512c282.77 0 512-229.23 512-512s-229.23-512-512-512zM691.462 644.612l-243.399-317.757-71.495 104.715c-13.289 19.46-39.836 24.462-59.296 11.174s-24.462-39.836-11.174-59.296l78.4-114.808c13.040-20.121 35.897-33.17 60.812-33.938 24.947-0.769 48.578 10.879 63.406 31.019l250.489 327c14.329 18.707 10.78 45.488-7.926 59.817s-45.488 10.78-59.817-7.926z" />
<glyph unicode="&#xe931;" glyph-name="upload_green" d="M640 405.333h213.333l-341.333 426.667-341.333-426.667h213.333v-341.333h256v341.333zM725.333 320v-256c0-47.128-38.205-85.333-85.333-85.333h-256c-47.128 0-85.333 38.205-85.333 85.333v256h-128c-71.553 0-111.333 82.768-66.634 138.641l341.333 426.667c34.161 42.701 99.107 42.701 133.268 0l341.333-426.667c44.699-55.873 4.918-138.641-66.634-138.641h-128z" />
<glyph unicode="&#xe932;" glyph-name="del" d="M608 864c53.019 0 96-42.981 96-96v-64c0-17.673-14.327-32-32-32h-320c-17.673 0-32 14.327-32 32v64c0 53.019 42.981 96 96 96h192zM640 736v32c0 17.673-14.327 32-32 32h-192c-17.673 0-32-14.327-32-32v-32h256zM256 672v-544c0-17.673 14.327-32 32-32h448c17.673 0 32 14.327 32 32v544h-512zM736 32h-448c-53.019 0-96 42.981-96 96v576c0 17.673 14.327 32 32 32h576c17.673 0 32-14.327 32-32v-576c0-53.019-42.981-96-96-96zM448 256c0-17.673-14.327-32-32-32s-32 14.327-32 32v256c0 17.673 14.327 32 32 32s32-14.327 32-32v-256zM640 256c0-17.673-14.327-32-32-32s-32 14.327-32 32v256c0 17.673 14.327 32 32 32s32-14.327 32-32v-256zM149.333 672c-17.673 0-32 14.327-32 32s14.327 32 32 32h725.333c17.673 0 32-14.327 32-32s-14.327-32-32-32h-725.333z" />
<glyph unicode="&#xe933;" glyph-name="note" d="M524.406 520.913l72.563 72.652c16.652 16.673 43.667 16.689 60.34 0.037s16.689-43.667 0.037-60.34l-72.541-72.63c4.611-9.612 8.058-19.889 10.157-30.648 35.833 9.158 76.717 27.883 115.167 56.346 95.778 70.902 152.767 179.001 148.774 308.431-10.342 0.204-20.69 0.011-31.020-0.578l-73.984-117.634c-17.407-27.678-58.199-26.294-73.691 2.5l-31.823 59.149c-81.045-53.1-137.621-138.433-156.444-206.854 11.418-2.035 22.312-5.583 32.466-10.431zM476.837 352.531l-62.606-62.683c-16.652-16.673-43.667-16.689-60.34-0.037s-16.689 43.667-0.037 60.34l62.281 62.358c-56.118 118.392 52.461 335.362 230.321 422.677 20.598 10.112 45.504 2.122 56.376-18.085l17.823-33.126 46.342 73.684c6.95 11.051 18.577 18.312 31.557 19.707 34.812 3.742 69.925 3.742 104.737 0 19.859-2.135 35.579-17.761 37.834-37.607 20.064-176.646-52.265-327.291-180.224-422.015-96.163-71.186-210.676-98.555-284.064-65.213zM512 254.637c27.351-3.453 56.063-2.829 85.333 1.482v-106.785c0-70.692-57.308-128-128-128h-256c-70.692 0-128 57.308-128 128v256c0 70.692 57.308 128 128 128h106.157c-4.376-29.251-5.013-57.958-1.501-85.333h-104.656c-23.564 0-42.667-19.103-42.667-42.667v-256c0-23.564 19.103-42.667 42.667-42.667h256c23.564 0 42.667 19.103 42.667 42.667v105.304z" />
<glyph unicode="&#xe934;" glyph-name="arrow-left-big" d="M669.745 673.411c16.894 16.428 17.271 43.44 0.844 60.334s-43.44 17.271-60.334 0.844l-250.834-243.917c-11.535-11.2-18.088-26.567-18.088-42.672s6.553-31.472 18.064-42.649l250.857-243.94c16.894-16.428 43.906-16.050 60.334 0.844s16.050 43.906-0.844 60.334l-231.803 225.411 231.803 225.411z" />
<glyph unicode="&#xe935;" glyph-name="arrow-right-big" d="M354.255 673.411c-16.894 16.428-17.271 43.44-0.844 60.334s43.44 17.271 60.334 0.844l250.834-243.917c11.535-11.2 18.088-26.567 18.088-42.672s-6.553-31.472-18.064-42.649l-250.857-243.94c-16.894-16.428-43.906-16.050-60.334 0.844s-16.050 43.906 0.844 60.334l231.803 225.411-231.803 225.411z" />
<glyph unicode="&#xe936;" glyph-name="single-record-view" d="M693.333 330.667h-149.333v-277.333h149.333v277.333zM757.333 330.667v-277.333h96c29.455 0 53.333 23.878 53.333 53.333v224h-149.333zM480 330.667h-149.333v-277.333h149.333v277.333zM266.667 330.667h-149.333v-224c0-29.455 23.878-53.333 53.333-53.333h96v277.333zM117.333 394.667h789.333v394.667c0 29.455-23.878 53.333-53.333 53.333h-682.667c-29.455 0-53.333-23.878-53.333-53.333v-394.667zM970.667 362.667v-256c0-64.801-52.532-117.333-117.333-117.333h-682.667c-64.801 0-117.333 52.532-117.333 117.333v682.667c0 64.801 52.532 117.333 117.333 117.333h682.667c64.801 0 117.333-52.532 117.333-117.333v-426.667zM213.333 672c-17.673 0-32 14.327-32 32s14.327 32 32 32h554.667c17.673 0 32-14.327 32-32s-14.327-32-32-32h-554.667zM213.333 501.333c-17.673 0-32 14.327-32 32s14.327 32 32 32h256c17.673 0 32-14.327 32-32s-14.327-32-32-32h-256z" />
<glyph unicode="&#xe937;" glyph-name="table-view" d="M330.667 53.333h149.333v576h-149.333v-576zM266.667 53.333v576h-149.333v-522.667c0-29.455 23.878-53.333 53.333-53.333h96zM330.667 693.333h149.333v149.333h-149.333v-149.333zM266.667 693.333v149.333h-96c-29.455 0-53.333-23.878-53.333-53.333v-96h149.333zM693.333 53.333v576h-149.333v-576h149.333zM757.333 53.333h96c29.455 0 53.333 23.878 53.333 53.333v522.667h-149.333v-576zM693.333 693.333v149.333h-149.333v-149.333h149.333zM757.333 693.333h149.333v96c0 29.455-23.878 53.333-53.333 53.333h-96v-149.333zM53.333 661.333v128c0 64.801 52.532 117.333 117.333 117.333h682.667c64.801 0 117.333-52.532 117.333-117.333v-682.667c0-64.801-52.532-117.333-117.333-117.333h-682.667c-64.801 0-117.333 52.532-117.333 117.333v554.667z" />
<glyph unicode="&#xe938;" glyph-name="quary" d="M53.333 704v85.333c0 64.801 52.532 117.333 117.333 117.333h682.667c64.801 0 117.333-52.532 117.333-117.333v-596.667c0-17.673-14.327-32-32-32s-32 14.327-32 32v479.333h-789.333v-565.333c0-29.455 23.878-53.333 53.333-53.333h597.365c17.673 0 32-14.327 32-32s-14.327-32-32-32h-597.365c-64.801 0-117.333 52.532-117.333 117.333v597.333zM117.333 736h789.333v53.333c0 29.455-23.878 53.333-53.333 53.333h-682.667c-29.455 0-53.333-23.878-53.333-53.333v-53.333zM213.333 522.667c-17.673 0-32 14.327-32 32s14.327 32 32 32h576c17.673 0 32-14.327 32-32s-14.327-32-32-32h-576zM213.333 352c-17.673 0-32 14.327-32 32s14.327 32 32 32h192c17.673 0 32-14.327 32-32s-14.327-32-32-32h-192zM213.333 181.333c-17.673 0-32 14.327-32 32s14.327 32 32 32h192c17.673 0 32-14.327 32-32s-14.327-32-32-32h-192zM830.38 174.875l109.581-109.581c30.17-30.17-15.085-75.425-45.255-45.255l-109.581 109.581c-25.294-16.753-55.626-26.509-88.236-26.509-88.366 0-160 71.634-160 160s71.634 160 160 160c88.366 0 160-71.634 160-160 0-32.611-9.756-62.943-26.509-88.236zM696.889 167.111c53.019 0 96 42.981 96 96s-42.981 96-96 96c-53.019 0-96-42.981-96-96s42.981-96 96-96z" />
<glyph unicode="&#xe939;" glyph-name="local_pin" d="M756.559 591.205l-101.356 101.355c-15.254 15.254-39.976 15.254-55.244 0-7.325-7.322-11.439-17.239-11.439-27.598 0-7.581 2.247-14.939 6.311-21.216l-135.422-116.488c-13.945 6.452-29.199 10.008-44.871 10.008-28.331 0-55.509-11.245-75.574-31.311-14.628-14.643-14.628-38.355 0-52.998l60.912-60.928-143.876-200.029 200.029 143.876 60.912-60.913c14.625-14.627 38.37-14.627 53.015 0 20.031 20.049 31.29 47.226 31.29 75.573 0 15.655-3.536 30.908-9.988 44.838l116.506 135.456c6.259-4.060 13.598-6.311 21.182-6.311 10.356 0 20.295 4.114 27.613 11.455 15.254 15.255 15.254 39.977 0 55.231z" />
<glyph unicode="&#xe93a;" glyph-name="local_pin-pinned" d="M583.669 829.485l-143.338-0.001c-21.573 0-39.053-17.481-39.063-39.063-0.002-10.357 4.101-20.278 11.426-27.603 5.361-5.361 12.152-8.974 19.465-10.539l-13.389-178.127c-14.422-5.298-27.724-13.57-38.805-24.652-20.033-20.033-31.3-47.203-31.299-75.579 0.011-20.698 16.777-37.465 37.475-37.475l86.154-0.011 39.706-243.177 39.706 243.177 86.143-0.001c20.685-0.002 37.474 16.788 37.487 37.487-0.013 28.341-11.268 55.519-31.313 75.564-11.070 11.070-24.356 19.355-38.768 24.643l-13.399 178.164c7.297 1.555 14.078 5.153 19.441 10.515 7.322 7.322 11.442 17.26 11.426 27.625-0.001 21.574-17.481 39.054-39.054 39.054z" />
<glyph unicode="&#xe93b;" glyph-name="attachment" d="M757.333 305.81c0-17.673-14.327-32-32-32s-32 14.327-32 32v265.923c0 102.644-81.329 185.6-181.333 185.6s-181.333-82.956-181.333-185.6v-320c0-62.585 49.492-113.067 110.222-113.067s110.222 50.481 110.222 113.067v320c0 22.526-17.654 40.533-39.111 40.533s-39.111-18.007-39.111-40.533v-314.311c0-17.673-14.327-32-32-32s-32 14.327-32 32v314.311c0 57.592 46.021 104.533 103.111 104.533s103.111-46.941 103.111-104.533v-320c0-97.651-77.859-177.067-174.222-177.067s-174.222 79.416-174.222 177.067v320c0 137.71 109.696 249.6 245.333 249.6s245.333-111.89 245.333-249.6v-265.923z" />
<glyph unicode="&#xe93c;" glyph-name="icon-excel" d="M669.412 800h-413.412c-5.891 0-10.667-4.776-10.667-10.667v-128c0-17.673-14.327-32-32-32s-32 14.327-32 32v128c0 41.237 33.429 74.667 74.667 74.667h426.667c8.487 0 16.626-3.371 22.627-9.373l128-128c6.001-6.001 9.373-14.14 9.373-22.627v-42.667c0-17.673-14.327-32-32-32s-32 14.327-32 32v29.412l-109.255 109.255zM778.667 149.333c0 17.673 14.327 32 32 32s32-14.327 32-32v-42.667c0-41.237-33.429-74.667-74.667-74.667h-512c-41.237 0-74.667 33.429-74.667 74.667v42.667c0 17.673 14.327 32 32 32s32-14.327 32-32v-42.667c0-5.891 4.776-10.667 10.667-10.667h512c5.891 0 10.667 4.776 10.667 10.667v42.667zM437.333 524.8c0 17.673 14.327 32 32 32s32-14.327 32-32v-238.933c0-17.673-14.327-32-32-32s-32 14.327-32 32v238.933zM469.333 245.333c-17.673 0-32 14.327-32 32s14.327 32 32 32h128c17.673 0 32-14.327 32-32s-14.327-32-32-32h-128zM810.667 373.333c-17.673 0-32 14.327-32 32s14.327 32 32 32h21.333c53.019 0 96-42.981 96-96s-42.981-96-96-96h-106.667c-17.673 0-32 14.327-32 32s14.327 32 32 32h106.667c17.673 0 32 14.327 32 32s-14.327 32-32 32h-21.333zM810.667 437.333c17.673 0 32-14.327 32-32s-14.327-32-32-32h-21.333c-53.019 0-96 42.981-96 96s42.981 96 96 96h64c17.673 0 32-14.327 32-32s-14.327-32-32-32h-64c-17.673 0-32-14.327-32-32s14.327-32 32-32h21.333zM154.626 259.583c-23.667-35.501-76.918 0-53.251 35.501l85.333 128c12.666 18.999 40.585 18.999 53.251 0l85.333-128c23.667-35.501-29.584-71.002-53.251-35.501l-58.708 88.062-58.708-88.062zM272.041 551.084c23.667 35.501 76.918 0 53.251-35.501l-85.333-128c-12.666-18.999-40.585-18.999-53.251 0l-85.333 128c-23.667 35.501 29.584 71.002 53.251 35.501l58.708-88.062 58.708 88.062z" />
<glyph unicode="&#xe93d;" glyph-name="icon-pdf" d="M669.412 800h-413.412c-5.891 0-10.667-4.776-10.667-10.667v-128c0-17.673-14.327-32-32-32s-32 14.327-32 32v128c0 41.237 33.429 74.667 74.667 74.667h426.667c8.487 0 16.626-3.371 22.627-9.373l128-128c6.001-6.001 9.373-14.14 9.373-22.627v-42.667c0-17.673-14.327-32-32-32s-32 14.327-32 32v29.412l-109.255 109.255zM778.667 149.333c0 17.673 14.327 32 32 32s32-14.327 32-32v-42.667c0-41.237-33.429-74.667-74.667-74.667h-512c-41.237 0-74.667 33.429-74.667 74.667v42.667c0 17.673 14.327 32 32 32s32-14.327 32-32v-42.667c0-5.891 4.776-10.667 10.667-10.667h512c5.891 0 10.667 4.776 10.667 10.667v42.667zM757.333 437.333h96c17.673 0 32-14.327 32-32s-14.327-32-32-32h-96v-87.467c0-17.673-14.327-32-32-32s-32 14.327-32 32v238.933c0 1.447 0.096 2.871 0.282 4.267-0.186 1.396-0.282 2.82-0.282 4.267 0 17.673 14.327 32 32 32h128c17.673 0 32-14.327 32-32s-14.327-32-32-32h-96v-64zM202.667 373.333v-87.467c0-17.673-14.327-32-32-32s-32 14.327-32 32v247.467c0 17.673 14.327 32 32 32h64c53.019 0 96-42.981 96-96s-42.981-96-96-96h-32zM202.667 437.333h32c17.673 0 32 14.327 32 32s-14.327 32-32 32h-32v-64zM426.667 565.333h42.667c88.366 0 160-71.634 160-160s-71.634-160-160-160h-42.667c-17.673 0-32 14.327-32 32v256c0 17.673 14.327 32 32 32zM458.667 501.333v-192h10.667c53.019 0 96 42.981 96 96s-42.981 96-96 96h-10.667z" />
<glyph unicode="&#xe93e;" glyph-name="icon-ppt" d="M669.412 800h-413.412c-5.891 0-10.667-4.776-10.667-10.667v-128c0-17.673-14.327-32-32-32s-32 14.327-32 32v128c0 41.237 33.429 74.667 74.667 74.667h426.667c8.487 0 16.626-3.371 22.627-9.373l128-128c6.001-6.001 9.373-14.14 9.373-22.627v-42.667c0-17.673-14.327-32-32-32s-32 14.327-32 32v29.412l-109.255 109.255zM778.667 149.333c0 17.673 14.327 32 32 32s32-14.327 32-32v-42.667c0-41.237-33.429-74.667-74.667-74.667h-512c-41.237 0-74.667 33.429-74.667 74.667v42.667c0 17.673 14.327 32 32 32s32-14.327 32-32v-42.667c0-5.891 4.776-10.667 10.667-10.667h512c5.891 0 10.667 4.776 10.667 10.667v42.667zM202.667 277.333c0-42.667-64-42.667-64 0v256c0 17.673 14.327 32 32 32h64c53.019 0 96-42.981 96-96s-42.981-96-96-96h-32v-96zM202.667 437.333h32c17.673 0 32 14.327 32 32s-14.327 32-32 32h-32v-64zM501.333 277.333c0-42.667-64-42.667-64 0v256c0 17.673 14.327 32 32 32h64c53.019 0 96-42.981 96-96s-42.981-96-96-96h-32v-96zM533.333 437.333c17.673 0 32 14.327 32 32s-14.327 32-32 32h-32v-64h32zM842.667 501.333v-224c0-42.667-64-42.667-64 0v224h-53.333c-42.667 0-42.667 64 0 64h170.667c42.667 0 42.667-64 0-64h-53.333z" />
<glyph unicode="&#xe93f;" glyph-name="icon-txt" d="M669.412 800h-413.412c-5.891 0-10.667-4.776-10.667-10.667v-128c0-17.673-14.327-32-32-32s-32 14.327-32 32v128c0 41.237 33.429 74.667 74.667 74.667h426.667c8.487 0 16.626-3.371 22.627-9.373l128-128c6.001-6.001 9.373-14.14 9.373-22.627v-42.667c0-17.673-14.327-32-32-32s-32 14.327-32 32v29.412l-109.255 109.255zM778.667 149.333c0 17.673 14.327 32 32 32s32-14.327 32-32v-42.667c0-41.237-33.429-74.667-74.667-74.667h-512c-41.237 0-74.667 33.429-74.667 74.667v42.667c0 17.673 14.327 32 32 32s32-14.327 32-32v-42.667c0-5.891 4.776-10.667 10.667-10.667h512c5.891 0 10.667 4.776 10.667 10.667v42.667zM473.541 405.333l-73.5 110.25c-23.667 35.501 29.584 71.002 53.251 35.501l58.708-88.062 58.708 88.062c23.667 35.501 76.918 0 53.251-35.501l-73.5-110.25 73.5-110.25c23.667-35.501-29.584-71.002-53.251-35.501l-58.708 88.062-58.708-88.062c-23.667-35.501-76.918 0-53.251 35.501l73.5 110.25zM245.333 501.333v-224c0-42.667-64-42.667-64 0v224h-53.333c-42.667 0-42.667 64 0 64h170.667c42.667 0 42.667-64 0-64h-53.333zM842.667 501.333v-224c0-42.667-64-42.667-64 0v224h-53.333c-42.667 0-42.667 64 0 64h170.667c42.667 0 42.667-64 0-64h-53.333z" />
<glyph unicode="&#xe940;" glyph-name="icon-word" d="M669.412 800h-413.412c-5.891 0-10.667-4.776-10.667-10.667v-128c0-17.673-14.327-32-32-32s-32 14.327-32 32v128c0 41.237 33.429 74.667 74.667 74.667h426.667c8.487 0 16.626-3.371 22.627-9.373l128-128c6.001-6.001 9.373-14.14 9.373-22.627v-42.667c0-17.673-14.327-32-32-32s-32 14.327-32 32v29.412l-109.255 109.255zM778.667 149.333c0 17.673 14.327 32 32 32s32-14.327 32-32v-42.667c0-41.237-33.429-74.667-74.667-74.667h-512c-41.237 0-74.667 33.429-74.667 74.667v42.667c0 17.673 14.327 32 32 32s32-14.327 32-32v-42.667c0-5.891 4.776-10.667 10.667-10.667h512c5.891 0 10.667 4.776 10.667 10.667v42.667zM847.737 324.323c12.704 12.286 32.962 11.947 45.249-0.757s11.947-32.962-0.757-45.249c-21.717-21.003-50.737-32.984-81.562-32.984-64.801 0-117.333 52.532-117.333 117.333v85.333c0 64.801 52.532 117.333 117.333 117.333 32.463 0 62.883-13.292 84.86-36.303 12.206-12.781 11.741-33.037-1.040-45.243s-33.037-11.741-45.243 1.040c-10.023 10.494-23.781 16.506-38.578 16.506-29.455 0-53.333-23.878-53.333-53.333v-85.333c0-29.455 23.878-53.333 53.333-53.333 14.053 0 27.171 5.416 37.070 14.989zM128 565.333h42.667c88.366 0 160-71.634 160-160s-71.634-160-160-160h-42.667c-17.673 0-32 14.327-32 32v256c0 17.673 14.327 32 32 32zM160 309.333h10.667c53.019 0 96 42.981 96 96s-42.981 96-96 96h-10.667v-192zM512 565.333c64.801 0 117.333-52.532 117.333-117.333v-85.333c0-64.801-52.532-117.333-117.333-117.333s-117.333 52.532-117.333 117.333v85.333c0 64.801 52.532 117.333 117.333 117.333zM512 501.333c-29.455 0-53.333-23.878-53.333-53.333v-85.333c0-29.455 23.878-53.333 53.333-53.333s53.333 23.878 53.333 53.333v85.333c0 29.455-23.878 53.333-53.333 53.333z" />
<glyph unicode="&#xe941;" glyph-name="mail" d="M213.333 672c-29.455 0-53.333-23.878-53.333-53.333v-341.333c0-29.455 23.878-53.333 53.333-53.333h597.333c29.455 0 53.333 23.878 53.333 53.333v341.333c0 29.455-23.878 53.333-53.333 53.333h-597.333zM213.333 736h597.333c64.801 0 117.333-52.532 117.333-117.333v-341.333c0-64.801-52.532-117.333-117.333-117.333h-597.333c-64.801 0-117.333 52.532-117.333 117.333v341.333c0 64.801 52.532 117.333 117.333 117.333zM834.133 686.933c14.138 10.604 34.196 7.738 44.8-6.4s7.738-34.196-6.4-44.8l-341.333-256c-11.378-8.533-27.022-8.533-38.4 0l-341.333 256c-14.138 10.604-17.004 30.662-6.4 44.8s30.662 17.004 44.8 6.4l322.133-241.6 322.133 241.6z" />
<glyph unicode="&#xe942;" glyph-name="icon-emtpyfile" d="M669.412 800h-413.412c-5.891 0-10.667-4.776-10.667-10.667v-128c0-17.673-14.327-32-32-32s-32 14.327-32 32v128c0 41.237 33.429 74.667 74.667 74.667h426.667c8.487 0 16.626-3.371 22.627-9.373l128-128c6.001-6.001 9.373-14.14 9.373-22.627v-42.667c0-17.673-14.327-32-32-32s-32 14.327-32 32v29.412l-109.255 109.255zM778.667 661.333c0 17.673 14.327 32 32 32s32-14.327 32-32v-554.667c0-41.237-33.429-74.667-74.667-74.667h-512c-41.237 0-74.667 33.429-74.667 74.667v554.667c0 17.673 14.327 32 32 32s32-14.327 32-32v-554.667c0-5.891 4.776-10.667 10.667-10.667h512c5.891 0 10.667 4.776 10.667 10.667v554.667z" />
<glyph unicode="&#xe943;" glyph-name="icon-folder" d="M804.103 677.818c45.036 0 81.231-37.072 81.231-82.424v-395.636c0-45.352-36.194-82.424-81.231-82.424h-584.205c-45.036 0-81.231 37.072-81.231 82.424v496.485c0 45.352 36.194 82.424 81.231 82.424h165.744c25.744 0 49.906-12.374 65.203-33.264l49.488-67.584h303.77zM821.333 595.394c0 10.345-7.888 18.424-17.231 18.424h-320c-10.201 0-19.791 4.864-25.818 13.095l-59.077 80.679c-3.298 4.504-8.319 7.075-13.566 7.075h-165.744c-9.342 0-17.231-8.080-17.231-18.424v-496.485c0-10.345 7.888-18.424 17.231-18.424h584.205c9.342 0 17.231 8.080 17.231 18.424v395.636z" />
<glyph unicode="&#xe944;" glyph-name="icon-sort-small" d="M720.644 664.233c5.328 7.531 6.185 17.608 2.214 26.028s-12.089 13.739-20.969 13.739h-422.444c-8.88 0-16.998-5.319-20.969-13.739s-3.114-18.497 2.214-26.028l183.054-260.747v-186.631c0-9.414 5.017-18.020 12.96-22.23s17.447-3.302 24.551 2.347l46.889 37.282c5.903 4.694 9.378 12.060 9.378 19.883v149.375l183.124 260.722z" />
<glyph unicode="&#xe945;" glyph-name="bi" d="M512 832c212.077 0 384-171.923 384-384s-171.923-384-384-384c-212.077 0-384 171.923-384 384s171.923 384 384 384zM512 704c-141.385 0-256-114.615-256-256s114.615-256 256-256c141.385 0 256 114.615 256 256s-114.615 256-256 256zM654.692 319.577c-35.152-39.028-86.073-63.577-142.692-63.577-105.984 0-192 86.016-192 192s86.016 192 192 192v-192l142.692-128.423z" />
<glyph unicode="&#xe946;" glyph-name="sort" d="M256 512l256 256 256-256zM256 384l256-256 256 256z" />
<glyph unicode="&#xe947;" d="M256 512l256 256 256-256z" />
<glyph unicode="&#xe948;" d="M256 384l256-256 256 256z" />
</font>
</defs>
</svg>
