<?xml version="1.0" standalone="no"?>
<!DOCTYPE svg PUBLIC "-//W3C//DTD SVG 1.1//EN" "http://www.w3.org/Graphics/SVG/1.1/DTD/svg11.dtd" >
<svg xmlns="http://www.w3.org/2000/svg">
<metadata>Generated by IcoMoon</metadata>
<defs>
<font id="icomoon" horiz-adv-x="1024">
<font-face units-per-em="1024" ascent="960" descent="-64" />
<missing-glyph horiz-adv-x="1024" />
<glyph unicode="&#x20;" horiz-adv-x="512" d="" />
<glyph unicode="&#xe900;" glyph-name="recordView" horiz-adv-x="983" d="M183.149 79.36c-33.136 0-60.473 24.437-60.473 54.673v627.932c0 30.237 26.923 54.675 60.473 54.675h616.747c33.137 0 60.473-24.438 60.473-54.675v-627.932c0-30.237-26.923-54.673-60.473-54.673h-616.747zM683.504 110.424h115.978c15.741 0 28.578 10.768 28.578 23.609v472.606h-144.556v-496.215zM507.056 110.424h144.556v496.215h-144.556v-496.215zM331.019 110.424h144.556v496.63h-144.556v-496.63zM154.569 134.033c0-13.255 12.84-23.609 28.58-23.609h115.977v496.63h-144.556v-473.020zM683.504 637.705h144.556v124.261c0 13.254-12.837 23.609-28.578 23.609h-115.978v-147.87zM507.056 638.119h144.556v147.871h-144.556v-147.871zM331.019 638.119h144.556v147.456h-144.556v-147.456zM183.149 785.575c-15.74 0-28.58-10.769-28.58-23.609v-123.432h144.556v147.456h-115.977v-0.415z" />
<glyph unicode="&#xe901;" glyph-name="group_by" d="M149.76 89.6l-21.76 20.053v702.293l21.76 20.053h100.267v-29.44h-88.32v-683.947h88.747v-29.44h-100.693v0.427zM681.387 199.253l-21.76 20.053v153.6l21.76 20.053h167.253l21.76-20.053v-153.6l-21.76-20.053h-167.253zM693.333 228.693h143.787v135.253h-143.787v-135.253zM386.133 254.293l-21.76 20.053v98.56l21.76 20.053h107.947l21.76-20.053v-98.56l-21.76-20.053h-107.947zM397.653 283.307h84.48v80.213h-84.48v-80.213zM541.44 308.907v29.44h92.587v-29.44h-92.587zM681.387 528.213l-21.76 20.053v153.6l21.76 20.053h167.253l21.76-20.053v-153.6l-21.76-20.053h-167.253zM693.333 557.653h143.787v135.253h-143.787v-135.253zM386.133 528.213l-21.76 20.053v98.56l21.76 20.053h107.947l21.76-20.053v-98.56l-21.76-20.053h-107.947zM397.653 557.653h84.48v80.213h-84.48v-80.213zM541.44 583.253v29.44h92.587v-29.44h-92.587z" />
<glyph unicode="&#xe902;" glyph-name="select_columns" d="M216.746 76.8c-20.053 0-39.253 7.68-53.76 22.187s-22.187 33.28-22.187 53.76v590.505c0 20.053 8.107 39.253 22.187 53.76 14.507 14.507 33.28 22.187 53.76 22.187h590.934c20.053 0 39.253-7.68 53.76-22.187s22.187-33.28 22.187-53.76v-590.931c0-20.053-8.107-39.253-22.187-53.76s-33.28-22.187-53.76-22.187l-590.934 0.427zM528.64 110.080h278.613c11.093 0 21.76 4.267 29.867 12.373s12.373 18.773 12.373 29.867v160.427h-320.853v-202.667zM174.506 152.747c0-11.093 4.693-22.187 12.373-29.867 8.107-7.68 18.773-12.373 29.867-12.373h278.614v202.667h-320.854v-160.427zM528.64 346.453h320.853v202.665h-320.853v-202.665zM174.506 346.453h320.854v202.665h-320.854v-202.665zM528.64 582.825h320.853v160.427c0 11.093-4.693 22.187-12.373 29.867-8.107 8.107-18.773 12.373-29.867 12.373h-278.613v-202.667zM216.746 785.491c-11.093 0-22.187-4.693-29.867-12.373s-12.373-18.773-12.373-29.867v-160.427h320.854v202.667h-278.614z" />
<glyph unicode="&#xe903;" glyph-name="html" d="M6.563 333.124v229.74h37.749v-85.335h111.584v85.335h37.749v-229.74h-37.749v106.667h-111.584v-106.667h-37.749zM337.229 333.124v192h-82.869v37.74h203.488v-37.74h-82.869v-192h-37.749zM518.562 333.124v196.919c0 9.301 3.149 17.098 9.442 23.392 6.293 6.286 14.084 9.429 23.381 9.429h185.438c9.301 0 17.097-3.143 23.381-9.429 6.293-6.293 9.442-14.091 9.442-23.392v-196.919h-37.751v192h-68.915v-149.333h-37.751v149.333h-68.915v-192h-37.751zM863.181 333.124v229.74h37.751v-192.002h116.51v-37.739h-154.261z" />
<glyph unicode="&#xe904;" glyph-name="chat-fill" horiz-adv-x="983" d="M229.375 124.412c-4.506 0-9.011 0.819-13.107 2.458s-7.782 4.096-10.65 7.373c-3.277 3.277-5.325 6.963-7.373 11.059-1.638 4.096-2.458 8.602-2.458 12.698s0.819 6.963 1.638 9.83l27.853 101.171c-0.819 4.096-1.638 6.554-3.277 9.011l-2.458 3.686c-33.997 52.429-51.61 111.821-51.61 173.261 0 83.149 32.358 161.792 91.75 221.184 61.030 61.44 143.36 95.437 231.425 95.437 152.781 0 285.901-106.086 317.030-251.904 4.506-21.299 6.963-43.008 6.963-64.717 0-176.128-142.95-319.078-318.669-319.078-27.443 0-64.717 6.554-87.655 13.107-20.48 5.734-40.96 13.107-46.285 15.155-2.867 1.229-6.144 1.638-9.421 1.638-3.686 0-6.963-0.819-10.24-2.048l-99.533-36.045c-4.096-1.638-7.782-2.458-11.878-2.867h-2.048v-0.41z" />
<glyph unicode="&#xe905;" glyph-name="pin_filled" d="M600.828 729.993c5.956 0.244 11.742-2.015 15.957-6.231l166.4-166.4c4.215-4.215 6.477-10.003 6.229-15.959-0.243-5.957-2.97-11.538-7.518-15.395l-148.143-125.641 10.014-96.529c0.666-6.391-1.587-12.74-6.131-17.284l-48.273-48.273c-8.329-8.329-21.837-8.329-30.17 0l-111.078 111.083-177.129-177.131c-8.331-8.329-21.839-8.329-30.17 0-8.331 8.333-8.331 21.841 0 30.17l177.128 177.131-120.239 120.239c-4.001 4.002-6.249 9.425-6.249 15.087 0 5.658 2.248 11.081 6.249 15.083l48.27 48.271c4.544 4.544 10.895 6.798 17.288 6.134l96.5-10.017 125.67 148.148c3.853 4.546 9.438 7.271 15.394 7.515z" />
<glyph unicode="&#xe906;" glyph-name="pin" d="M600.828 729.993c5.956 0.244 11.742-2.015 15.957-6.231l166.4-166.4c4.215-4.215 6.477-10.003 6.229-15.959-0.243-5.957-2.97-11.538-7.518-15.395l-148.143-125.641 10.014-96.529c0.666-6.391-1.587-12.74-6.131-17.284l-48.273-48.273c-8.329-8.329-21.837-8.329-30.17 0l-111.078 111.083-177.129-177.131c-8.331-8.329-21.839-8.329-30.17 0-8.331 8.333-8.331 21.841 0 30.17l177.128 177.131-120.239 120.239c-4.001 4.002-6.249 9.425-6.249 15.087 0 5.658 2.248 11.081 6.249 15.083l48.27 48.271c4.544 4.544 10.895 6.798 17.288 6.134l96.5-10.017 125.67 148.148c3.853 4.546 9.438 7.271 15.394 7.515zM602.991 677.218l-117.973-139.070c-4.553-5.369-11.465-8.147-18.47-7.417l-97.585 10.128-26.002-26 231.321-231.322 26.001 26.001-10.129 97.617c-0.73 7.002 2.048 13.918 7.42 18.47l139.068 117.942-133.649 133.65z" />
<glyph unicode="&#xe907;" glyph-name="arrow-to-bottom" d="M512 359.851l190.392 195.791c12.321 12.67 32.58 12.953 45.25 0.633s12.953-32.58 0.633-45.25l-203.266-209.030c-8.666-8.925-20.553-13.994-33.009-13.994s-24.343 5.069-32.992 13.977l-203.283 209.048c-12.321 12.67-12.038 32.93 0.633 45.25s32.93 12.038 45.25-0.633l190.392-195.791z" />
<glyph unicode="&#xe908;" glyph-name="filter-filled" d="M881.131 731.971c-0.495-0.689-1.011-1.363-1.549-2.022l-256.764-314.974v-243.921c0-23.915-10.799-47.002-30.050-62.033l-68.198-53.257c-23.394-18.27-55.172-21.372-81.677-7.573-26.232 13.658-41.813 40.896-41.813 69.606v297.148l-256.67 315.012c-0.535 0.655-1.049 1.327-1.543 2.013-16.953 23.535-19.546 54.592-7.062 80.59 12.578 26.193 38.957 43.824 68.963 43.824h614.463c30.007 0 56.388-17.631 68.966-43.824 12.484-25.998 9.89-57.055-7.066-80.59z" />
<glyph unicode="&#xe909;" glyph-name="arrow-to-top" d="M702.392 340.358c12.321-12.67 32.58-12.953 45.25-0.633s12.953 32.58 0.633 45.25l-203.266 209.030c-8.666 8.925-20.553 13.994-33.009 13.994s-24.343-5.069-32.992-13.977l-203.283-209.048c-12.321-12.67-12.038-32.93 0.633-45.25s32.93-12.038 45.25 0.633l190.392 195.791 190.392-195.791z" />
<glyph unicode="&#xe90a;" glyph-name="operator-between" d="M321.681 626.321c7.998-7.998 7.998-20.965 0-28.963l-149.358-149.359 149.358-149.357c7.998-7.999 7.998-20.967 0-28.967-7.998-7.995-20.965-7.995-28.963 0l-163.84 163.84c-7.998 7.999-7.998 20.967 0 28.967l163.84 163.838c7.998 7.998 20.965 7.998 28.963 0zM702.317 626.321c-7.995-7.998-7.995-20.965 0-28.963l149.361-149.359-149.361-149.357c-7.995-7.999-7.995-20.967 0-28.967 7.999-7.995 20.967-7.995 28.967 0l163.84 163.84c7.995 7.999 7.995 20.967 0 28.967l-163.84 163.838c-7.999 7.998-20.967 7.998-28.967 0zM634.88 448c0-67.867-55.013-122.88-122.88-122.88s-122.88 55.013-122.88 122.88c0 67.867 55.013 122.88 122.88 122.88s122.88-55.013 122.88-122.88z" />
<glyph unicode="&#xe90b;" glyph-name="icon-add-new" d="M544 480h224c17.673 0 32-14.327 32-32s-14.327-32-32-32h-224v-224c0-17.673-14.327-32-32-32s-32 14.327-32 32v224h-224c-17.673 0-32 14.327-32 32s14.327 32 32 32h224v224c0 17.673 14.327 32 32 32s32-14.327 32-32v-224z" />
<glyph unicode="&#xe90c;" glyph-name="icon-add-small" d="M544 480h181.333c17.673 0 32-14.327 32-32s-14.327-32-32-32h-181.333v-181.333c0-17.673-14.327-32-32-32s-32 14.327-32 32v181.333h-181.333c-17.673 0-32 14.327-32 32s14.327 32 32 32h181.333v181.333c0 17.673 14.327 32 32 32s32-14.327 32-32v-181.333z" />
<glyph unicode="&#xe90d;" glyph-name="icon-arrow_drop_down" d="M298.667 533.333l213.333-213.333 213.333 213.333z" />
<glyph unicode="&#xe90e;" glyph-name="icon-arrow_drop_up" d="M298.667 320l213.333 213.333 213.333-213.333z" />
<glyph unicode="&#xe90f;" glyph-name="icon-close-big" d="M512 493.255l233.373 233.373c12.497 12.497 32.758 12.497 45.255 0s12.497-32.758 0-45.255l-233.373-233.373 233.373-233.373c12.497-12.497 12.497-32.758 0-45.255s-32.758-12.497-45.255 0l-233.373 233.373-233.373-233.373c-12.497-12.497-32.758-12.497-45.255 0s-12.497 32.758 0 45.255l233.373 233.373-233.373 233.373c-12.497 12.497-12.497 32.758 0 45.255s32.758 12.497 45.255 0l233.373-233.373z" />
<glyph unicode="&#xe910;" glyph-name="icon-close-small" d="M502.519 502.736l138.558 138.558c12.497 12.497 32.758 12.497 45.255 0s12.497-32.758 0-45.255l-138.558-138.558 138.558-138.558c12.497-12.497 12.497-32.758 0-45.255s-32.758-12.497-45.255 0l-138.558 138.558-138.558-138.558c-12.497-12.497-32.758-12.497-45.255 0s-12.497 32.758 0 45.255l138.558 138.558-138.558 138.558c-12.497 12.497-12.497 32.758 0 45.255s32.758 12.497 45.255 0l138.558-138.558z" />
<glyph unicode="&#xe911;" glyph-name="operator-contain" d="M477.364 309.15c10.924-5.734 24.576-8.602 40.96-8.602 15.29 0 28.262 2.593 38.912 7.782 10.924 5.46 19.796 12.698 26.624 21.709 7.098 9.286 12.423 19.796 15.974 31.539s5.46 24.166 5.734 37.274c0.274 4.37 0.41 8.466 0.41 12.288s-0.135 7.918-0.41 12.288c-0.274 12.833-2.183 25.121-5.734 36.864s-8.876 22.254-15.974 31.539c-6.828 9.286-15.7 16.519-26.624 21.709-10.65 5.46-23.622 8.192-38.912 8.192-15.839 0-29.217-2.867-40.141-8.602-10.65-5.734-19.386-12.833-26.214-21.299v94.208c0 2.73-0.819 4.915-2.458 6.554-1.638 1.911-3.961 2.867-6.963 2.867h-19.661c-2.732 0-5.050-0.956-6.963-2.867-1.638-1.638-2.458-3.823-2.458-6.554v-271.974c0-2.732 0.819-5.050 2.458-6.963 1.913-1.638 4.231-2.458 6.963-2.458h18.842c2.732 0 4.915 0.819 6.554 2.458 1.913 1.913 2.867 4.231 2.867 6.963v17.203c6.554-8.737 15.29-16.11 26.214-22.118zM542.9 342.737c-7.918-6.009-18.977-9.011-33.178-9.011-13.382 0-24.302 3.142-32.768 9.421-8.192 6.279-14.336 14.201-18.432 23.757-3.822 9.83-6.009 19.796-6.554 29.901-0.274 4.37-0.41 9.556-0.41 15.565 0 6.279 0.135 11.604 0.41 15.974 0.274 9.556 2.458 18.977 6.554 28.262 4.37 9.286 10.785 16.929 19.251 22.938s19.116 9.011 31.949 9.011c14.201 0 25.26-3.142 33.178-9.421 8.192-6.009 14.062-14.062 17.613-24.166 3.551-9.83 5.599-20.48 6.144-31.949 0.274-7.918 0.274-15.839 0-23.757-0.545-11.469-2.593-22.254-6.144-32.358-3.551-9.83-9.421-17.887-17.613-24.166zM264.782 300.548c-13.653 0-26.078 2.732-37.274 8.192s-20.207 12.833-27.034 22.118c-6.827 9.286-10.24 19.796-10.24 31.539 0 18.842 7.646 33.862 22.938 45.056s35.226 18.567 59.802 22.118l61.030 8.602v11.878c0 13.107-3.823 23.347-11.469 30.72-7.373 7.373-19.524 11.059-36.454 11.059-12.288 0-22.255-2.458-29.901-7.373-7.373-4.915-12.561-11.194-15.565-18.842-1.638-4.096-4.506-6.144-8.602-6.144h-18.432c-3.004 0-5.325 0.819-6.963 2.458-1.365 1.913-2.048 4.096-2.048 6.554 0 4.096 1.502 9.146 4.506 15.155 3.277 6.009 8.192 11.878 14.746 17.613s14.882 10.514 24.986 14.336c10.376 4.096 22.938 6.144 37.683 6.144 16.384 0 30.174-2.183 41.37-6.554 11.196-4.096 19.934-9.695 26.214-16.794 6.554-7.098 11.196-15.155 13.926-24.166 3.004-9.011 4.506-18.158 4.506-27.443v-132.71c0-2.732-0.956-5.050-2.867-6.963-1.638-1.638-3.823-2.458-6.554-2.458h-18.842c-3.004 0-5.325 0.819-6.963 2.458-1.638 1.913-2.458 4.231-2.458 6.963v17.613c-3.55-4.915-8.328-9.83-14.336-14.746-6.008-4.641-13.517-8.602-22.528-11.878-9.011-3.002-20.070-4.506-33.178-4.506zM273.384 331.268c11.196 0 21.436 2.322 30.72 6.963 9.284 4.915 16.52 12.423 21.709 22.528 5.461 10.105 8.192 22.802 8.192 38.093v11.469l-47.514-6.963c-19.388-2.732-33.997-7.373-43.827-13.926-9.83-6.279-14.746-14.336-14.746-24.166 0-7.647 2.184-14.062 6.554-19.251 4.642-4.915 10.376-8.602 17.203-11.059 7.1-2.458 14.336-3.686 21.709-3.686zM742.375 300.548c-19.386 0-36.18 3.686-50.381 11.059-13.926 7.647-24.711 18.432-32.358 32.358-7.647 14.201-11.743 31.13-12.288 50.79-0.274 4.096-0.41 9.556-0.41 16.384s0.135 12.288 0.41 16.384c0.545 19.661 4.641 36.454 12.288 50.381 7.647 14.201 18.432 24.986 32.358 32.358 14.201 7.647 30.994 11.469 50.381 11.469 15.839 0 29.356-2.183 40.55-6.554 11.469-4.37 20.89-9.966 28.262-16.794s12.833-14.201 16.384-22.118c3.822-7.918 5.87-15.43 6.144-22.528 0.274-2.732-0.545-4.915-2.458-6.554s-4.231-2.458-6.963-2.458h-19.661c-2.732 0-4.78 0.545-6.144 1.638-1.364 1.364-2.732 3.551-4.096 6.554-4.915 13.382-11.604 22.802-20.070 28.262s-18.977 8.192-31.539 8.192c-16.384 0-29.766-5.050-40.141-15.155-10.105-10.105-15.565-26.35-16.384-48.742-0.274-9.83-0.274-19.386 0-28.672 0.819-22.663 6.279-39.047 16.384-49.152 10.375-9.83 23.757-14.746 40.141-14.746 12.562 0 23.073 2.732 31.539 8.192s15.155 14.881 20.070 28.262c1.364 3.002 2.732 5.050 4.096 6.144 1.364 1.364 3.412 2.048 6.144 2.048h19.661c2.732 0 5.050-0.819 6.963-2.458s2.732-3.822 2.458-6.554c-0.274-5.734-1.503-11.604-3.686-17.613s-5.734-12.153-10.65-18.432c-4.641-6.009-10.514-11.469-17.613-16.384-7.098-4.641-15.7-8.466-25.805-11.469-9.83-2.732-21.025-4.096-33.587-4.096z" />
<glyph unicode="&#xe912;" glyph-name="icon-done" d="M787.801 726.386c12.364 12.629 32.624 12.843 45.252 0.48s12.843-32.624 0.48-45.252l-459.487-469.333c-13.396-13.683-35.729-12.617-47.76 2.28l-137.846 170.667c-11.105 13.749-8.961 33.896 4.787 45.001s33.896 8.961 45.001-4.787l115.247-142.687 434.326 443.633z" />
<glyph unicode="&#xe913;" d="M151.55 558.903c0 15.313 12.414 27.727 27.727 27.727h665.441c15.315 0 27.726-12.414 27.726-27.727s-12.411-27.727-27.726-27.727h-665.441c-15.313 0-27.727 12.413-27.727 27.727zM151.55 337.089c0 15.315 12.414 27.726 27.727 27.726h665.441c15.315 0 27.726-12.411 27.726-27.726 0-15.311-12.411-27.726-27.726-27.726h-665.441c-15.313 0-27.727 12.415-27.727 27.726z" />
<glyph unicode="&#xe914;" d="M151.55 558.903c0 15.313 12.414 27.727 27.727 27.727h665.441c15.315 0 27.726-12.414 27.726-27.727s-12.411-27.727-27.726-27.727h-665.441c-15.313 0-27.727 12.413-27.727 27.727zM151.55 337.089c0 15.315 12.414 27.726 27.727 27.726h665.441c15.315 0 27.726-12.411 27.726-27.726 0-15.311-12.411-27.726-27.726-27.726h-665.441c-15.313 0-27.727 12.415-27.727 27.726z" />
<glyph unicode="&#xe915;" glyph-name="operator-greater-equal" horiz-adv-x="1067" d="M415.104 730.752c-8.32-3.413-12.715-12.757-9.728-20.736 1.067-2.944 47.701-50.944 108.928-112.256l107.008-107.093-107.008-107.093c-59.52-59.563-107.861-109.355-108.885-112.128-4.011-10.795 4.011-21.589 16.043-21.589 6.955 0 8.619 1.579 121.813 114.645 63.104 63.019 115.925 116.907 117.419 119.68 1.146 2.050 1.822 4.498 1.822 7.104 0 0.943-0.088 1.865-0.257 2.759l0.014-0.092c-1.493 6.101-227.029 232.491-235.093 235.989-6.443 2.816-7.083 2.859-12.075 0.811zM435.541 179.371c-6.211-2.248-10.569-8.095-10.569-14.96 0-4.607 1.963-8.755 5.097-11.654l0.011-0.010 5.205-5.205h196.096l5.205 5.205c8.832 8.832 5.845 22.613-5.845 26.667-7.168 2.517-188.8 2.432-195.2-0.043z" />
<glyph unicode="&#xe916;" glyph-name="operator-greater" d="M392.831 674.916c-6.312-6.312-6.312-16.544 0-22.856l204.059-204.057-204.059-204.059c-6.312-6.312-6.312-16.544 0-22.856s16.544-6.312 22.856 0l215.486 215.486c6.308 6.312 6.308 16.544 0 22.856l-215.486 215.484c-6.312 6.312-16.545 6.312-22.856 0z" />
<glyph unicode="&#xe917;" glyph-name="operator-less-equal" horiz-adv-x="1067" d="M639.104 729.941c-7.979-3.669-233.301-230.229-234.709-235.989-0.154-0.802-0.243-1.724-0.243-2.667 0-2.606 0.675-5.054 1.86-7.179l-0.038 0.075c1.493-2.773 54.315-56.661 117.419-119.68 113.195-113.067 114.859-114.645 121.813-114.645 12.032 0 20.053 10.795 16.043 21.589-1.024 2.773-49.365 52.565-108.885 112.128l-107.008 107.093 107.008 107.093c59.52 59.563 107.861 109.355 108.885 112.128 4.992 13.397-9.045 26.069-22.144 20.053zM435.541 179.371c-6.211-2.248-10.569-8.095-10.569-14.96 0-4.607 1.963-8.755 5.097-11.654l0.011-0.010 5.205-5.205h196.096l5.205 5.205c8.832 8.832 5.845 22.613-5.845 26.667-7.168 2.517-188.8 2.432-195.2-0.043z" />
<glyph unicode="&#xe918;" glyph-name="operator-less" d="M631.169 221.082c6.312 6.312 6.312 16.548 0 22.856l-204.059 204.059 204.059 204.058c6.312 6.311 6.312 16.544 0 22.856s-16.544 6.311-22.856 0l-215.485-215.486c-6.312-6.312-6.312-16.544 0-22.856l215.485-215.486c6.312-6.308 16.544-6.308 22.856 0z" />
<glyph unicode="&#xe919;" glyph-name="icon-notification" d="M635.967 144c-14.209-55.207-64.325-96-123.967-96s-109.758 40.793-123.967 96h-244.033v64c35.346 0 64 28.654 64 64v208.011c0.043 121.155 71.981 230.091 181.994 278.193 16.68 52.353 65.578 89.054 121.942 89.054s105.263-36.701 121.943-89.055c110.016-48.107 181.988-157.012 182.121-278.204v-208c0-35.346 28.654-64 64-64v-64h-244.033zM567.438 144h-110.876c11.066-19.13 31.749-32 55.438-32s44.372 12.87 55.438 32zM880 208c42.667 0 42.667-64 0-64-47.378 0-88.744 25.741-110.876 64h110.876zM752 272v207.965c-0.11 100.228-62.493 189.834-156.452 224.725-10.788 4.006-18.595 13.497-20.444 24.855-5.043 30.968-31.792 53.714-63.168 53.714s-58.125-22.746-63.168-53.714c-1.85-11.359-9.657-20.85-20.446-24.856-93.941-34.877-156.286-124.494-156.322-224.689v-208c0-23.314-6.233-45.173-17.124-64h514.248c-10.891 18.827-17.124 40.686-17.124 64zM144 144c-42.667 0-42.667 64 0 64h110.876c-22.132-38.259-63.498-64-110.876-64z" />
<glyph unicode="&#xe91a;" d="M235.495 366.076c0 11.313 9.169 20.48 20.48 20.48h491.52c11.309 0 20.48-9.167 20.48-20.48 0-11.309-9.171-20.48-20.48-20.48h-491.52c-11.311 0-20.48 9.171-20.48 20.48z" />
<glyph unicode="&#xe91b;" d="M235.495 366.076c0 11.313 9.169 20.48 20.48 20.48h491.52c11.309 0 20.48-9.167 20.48-20.48 0-11.309-9.171-20.48-20.48-20.48h-491.52c-11.311 0-20.48 9.171-20.48 20.48z" />
<glyph unicode="&#xe91c;" d="M235.495 529.916c0 11.312 9.169 20.482 20.48 20.482h491.52c11.309 0 20.48-9.169 20.48-20.482 0-11.309-9.171-20.48-20.48-20.48h-491.52c-11.311 0-20.48 9.171-20.48 20.48z" />
<glyph unicode="&#xe91d;" d="M235.495 529.916c0 11.312 9.169 20.482 20.48 20.482h491.52c11.309 0 20.48-9.169 20.48-20.482 0-11.309-9.171-20.48-20.48-20.48h-491.52c-11.311 0-20.48 9.171-20.48 20.48z" />
<glyph unicode="&#xe91e;" glyph-name="empty" horiz-adv-x="983" d="M234.907 742.706l71.68-71.68c48.742 36.454 109.362 58.163 174.898 58.163 160.973 0 291.226-130.662 290.816-290.815 0-65.536-21.709-126.157-58.163-174.899l72.090-72.090c8.192-8.192 8.192-20.89 0-29.082s-20.89-8.192-29.082 0l-70.042 70.042c-52.429-52.429-125.338-85.197-205.619-85.197-160.562 0-290.815 130.253-290.815 290.816 0 80.282 32.768 153.189 85.197 206.028l-70.042 70.042c-8.192 7.782-7.782 20.48 0 28.672s20.89 8.192 29.082 0zM304.948 614.911c-45.056-45.056-73.318-107.724-73.318-176.946 0-138.035 111.821-249.856 249.855-249.856 69.222 0 131.482 27.853 176.947 73.318l-353.484 353.484zM685.056 292.557l-0.41 0.41c29.491 40.96 46.694 91.341 46.694 145.408 0 138.034-111.821 249.855-249.856 249.855-54.067 0-104.447-17.203-145.407-46.694l348.978-348.978z" />
<glyph unicode="&#xe91f;" d="M235.438 165.196c-7.998 7.999-7.998 20.963 0 28.963l503.623 503.623c7.995 7.998 20.963 7.998 28.963 0s7.999-20.965 0-28.963l-503.623-503.623c-7.998-7.999-20.965-7.999-28.963 0z" />
<glyph unicode="&#xe920;" glyph-name="icon-tabs-arrow-reg" d="M634.846 434.667l-202.738-193.333c-3.436-4.444-8.018-6.667-13.745-6.667s-10.881 1.667-15.463 5l-12.027 13.333c-4.582 3.333-6.872 7.778-6.872 13.333s2.291 10.556 6.872 15l175.248 166.667-175.248 166.667c-3.436 4.444-5.154 9.444-5.154 15s1.718 10 5.154 13.333l12.027 13.333c4.582 3.333 9.736 5 15.463 5s10.309-1.667 13.745-5l202.738-193.333c3.436-4.444 5.154-9.444 5.154-15s-1.718-10.556-5.154-15v1.667z" />
<glyph unicode="&#xe921;" glyph-name="question-circle" d="M416 575.994c-0.003-17.673-14.333-31.997-32.006-31.994s-31.997 14.333-31.994 32.006c0.016 81.364 61.091 149.759 141.934 158.946s155.708-43.761 173.979-123.047c18.271-79.286-25.87-159.658-102.58-186.779-12.791-4.522-21.34-16.619-21.333-30.203v-42.923c0-17.673-14.327-32-32-32s-32 14.327-32 32v42.906c-0.021 40.702 25.626 76.993 64 90.56 46.026 16.273 72.511 64.496 61.548 112.068s-55.881 79.34-104.388 73.828c-48.506-5.512-85.151-46.549-85.161-95.368zM512 256c26.51 0 48-21.49 48-48s-21.49-48-48-48c-26.51 0-48 21.49-48 48 0 26.503 21.48 47.99 47.981 48 0.006 0 0.013 0 0.019 0zM512-64c-282.77 0-512 229.23-512 512s229.23 512 512 512c282.77 0 512-229.23 512-512s-229.23-512-512-512zM512 0c247.424 0 448 200.576 448 448s-200.576 448-448 448c-247.424 0-448-200.576-448-448s200.576-448 448-448z" />
<glyph unicode="&#xe922;" glyph-name="only-delivery" horiz-adv-x="983" d="M740.352 167.219c-27.853 0-50.79 9.421-70.042 28.672s-28.672 42.189-28.672 70.042v8.192h-309.247v-8.192c0-27.853-9.421-50.79-29.082-70.042-19.251-19.251-42.598-28.672-70.042-28.672s-50.79 9.421-70.042 28.672c-19.251 19.251-28.672 42.189-28.672 70.042v8.192h-56.934v396.492c0 16.794 5.325 30.31 16.384 41.37s24.576 16.384 41.37 16.384h533.708v-148.275h98.714l137.626-185.138v-121.242h-66.355v-8.192c0-27.853-9.421-50.79-29.082-70.042s-42.598-28.672-70.042-28.672l0.41 0.41zM740.352 340.48c-20.48 0-38.502-7.373-52.838-21.709s-21.709-31.949-21.709-52.838c0-20.89 7.373-38.502 21.709-52.838s31.949-21.709 52.838-21.709c20.89 0 38.502 7.373 52.838 21.709s21.709 31.949 21.709 52.838c0 20.89-7.373 38.502-21.709 52.838s-31.949 21.709-52.838 21.709zM233.268 340.48c-20.48 0-38.502-7.373-52.838-21.709s-21.709-31.949-21.709-52.838c0-20.89 7.373-38.502 21.709-52.838s31.949-21.709 52.838-21.709c20.89 0 38.502 7.373 52.838 21.709s21.709 31.949 21.709 52.838c0 20.89-7.373 38.502-21.709 52.838s-31.949 21.709-52.838 21.709zM233.268 365.056c19.661 0 38.502-6.144 55.296-17.613 16.794-11.878 27.853-26.214 33.178-42.598l1.638-5.734h321.126v405.093h-508.722c-8.602 0-16.384-3.277-22.938-10.24-6.963-6.963-10.24-14.336-10.24-22.938v-371.916h40.55l1.638 5.734c5.325 16.384 16.384 30.72 32.768 42.598 16.794 12.288 34.816 18.022 56.115 18.022l-0.41-0.41zM669.491 380.621h217.498l-133.12 175.717h-84.787v-175.717h0.41z" />
<glyph unicode="&#xe923;" glyph-name="delivery-and-map" horiz-adv-x="983" d="M204.798 87.552c-40.55 0-73.728 33.178-73.728 73.728v573.442c0 40.55 33.178 73.728 73.728 73.728h573.442c40.55 0 73.728-33.178 73.728-73.728v-573.442c0-40.55-33.178-73.728-73.728-73.728h-573.442zM204.798 783.874c-27.034 0-49.152-22.118-49.152-49.152v-573.442c0-27.034 22.118-49.152 49.152-49.152h274.434v206.438h-62.259v-8.192c0-20.48-6.963-37.274-21.301-51.61-14.336-14.336-31.13-21.299-51.61-21.299s-37.274 6.963-51.61 21.299c-14.336 14.336-21.299 31.13-21.299 51.61v8.192h-49.971v89.293l103.219 138.854h75.776v112.232h79.055v124.928h-274.434zM344.062 368.538c-15.974 0-29.901-5.734-41.37-17.203s-16.794-24.986-16.794-41.37c0-16.384 5.734-29.901 16.794-41.37 11.059-11.059 24.986-16.794 41.37-16.794s29.901 5.734 41.37 16.794c11.059 11.469 16.794 24.986 16.794 41.37s-5.734 29.901-17.203 41.37c-11.059 11.469-24.986 17.203-41.37 17.203h0.41zM414.515 333.312h64.717v310.888h-64.717v-310.888zM229.374 395.162h170.803v136.806h-67.174l-103.629-136.806z" />
<glyph unicode="&#xe924;" glyph-name="xCircle" d="M473.6 872.917c-89.344-9.045-166.741-41.344-235.861-98.432-63.104-52.139-113.707-130.176-135.936-209.579-11.349-40.491-15.488-71.851-15.488-116.907 0-70.571 12.672-125.483 43.52-188.757 42.295-84.341 109.078-151.138 190.957-192.333l2.451-1.118c63.915-31.147 118.613-43.605 190.464-43.435 40.96 0.128 68.608 3.456 104.107 12.544 151.019 39.7 267.586 156.267 306.619 304.31l0.667 2.975c9.344 36.48 12.459 63.061 12.459 105.813s-3.115 69.333-12.459 105.813c-30.72 120.149-113.749 222.464-224.341 276.352-39.44 20.18-85.307 34.656-133.759 40.869l-2.091 0.219c-19.84 2.603-72.576 3.541-91.307 1.664zM573.44 827.179c67.755-11.563 132.821-41.088 182.613-82.773 62.11-51.731 107.519-121.595 128.176-201.421l0.592-2.696c8.192-32.683 10.283-51.285 10.283-92.288s-2.091-59.605-10.283-92.288c-13.611-54.357-42.112-110.891-76.459-151.765-54.357-64.64-124.373-108.8-204.075-128.768-32.683-8.192-51.285-10.283-92.288-10.283s-59.605 2.091-92.288 10.283c-54.229 13.568-110.464 41.899-151.765 76.373-41.545 34.237-75.194 76.441-98.9 124.435l-0.982 2.2c-16.817 32.634-29.416 70.518-35.771 110.483l-0.283 2.157c-4.352 26.411-4.352 87.936 0 114.347 11.221 68.565 40.064 133.803 81.707 184.789 34.675 42.415 77.501 76.769 126.254 100.978l2.216 0.995c39.693 20.311 85.995 34.188 134.978 38.877l1.555 0.12c17.323 1.835 75.733-0.512 94.72-3.755zM277.333 693.461c-10.155-5.589-14.507-14.635-12.032-24.875 0.768-3.157 36.011-39.637 108.971-112.64l107.819-107.947-216.704-216.747v-9.259c0-7.936 0.725-10.069 4.992-14.507 4.028-4.184 9.676-6.784 15.932-6.784 1.81 0 3.57 0.218 5.254 0.628l-0.151-0.031c3.157 0.768 39.637 36.011 112.64 108.971l107.947 107.819 107.947-107.819c73.003-72.96 109.483-108.203 112.64-108.971 1.541-0.393 3.311-0.619 5.133-0.619 11.923 0 21.589 9.666 21.589 21.589 0 1.81-0.223 3.568-0.642 5.248l0.031-0.149c-0.768 3.243-35.285 38.912-108.971 112.683l-107.819 107.947 107.819 107.947c72.96 73.003 108.203 109.483 108.971 112.64 4.139 16.981-13.824 32.555-28.8 25.003-2.048-1.024-51.925-50.005-110.805-108.8l-107.093-106.923-107.093 106.923c-58.88 58.795-108.757 107.776-110.805 108.8-2.424 1.112-5.258 1.761-8.244 1.761-3.094 0-6.026-0.696-8.646-1.941l0.122 0.052z" />
<glyph unicode="&#xe925;" glyph-name="operator-not" d="M498.811 342.483c-3.826 0-7.074 1.147-9.748 3.441-2.294 2.675-3.441 5.927-3.441 9.748v279.839c0 3.823 1.147 6.881 3.441 9.175 2.675 2.676 5.923 4.014 9.748 4.014h26.952c3.822 0 6.881-1.338 9.175-4.014 2.294-2.294 3.441-5.352 3.441-9.175v-279.839c0-3.822-1.147-7.074-3.441-9.748-2.294-2.294-5.353-3.441-9.175-3.441h-26.952zM493.65 247.292c-3.826 0-7.074 1.147-9.748 3.441-2.294 2.675-3.441 5.927-3.441 9.748v36.127c0 4.207 1.147 7.455 3.441 9.748 2.675 2.675 5.923 4.014 9.748 4.014h36.7c3.822 0 6.881-1.339 9.175-4.014 2.675-2.294 4.014-5.542 4.014-9.748v-36.127c0-3.822-1.339-7.074-4.014-9.748-2.294-2.294-5.353-3.441-9.175-3.441h-36.7z" />
<glyph unicode="&#xe926;" glyph-name="flag-white" horiz-adv-x="961" d="M355.265 259.918v355.265h292.571l-43.802-89.234 43.802-89.192h-271.673v-176.839h-20.898zM376.163 457.634h238.571l-33.938 68.336 33.938 68.315h-238.571v-136.652z" />
<glyph unicode="&#xe927;" glyph-name="thirds-map" horiz-adv-x="983" d="M204.798 87.552c-40.55 0-73.728 33.178-73.728 73.728v573.442c0 40.55 33.178 73.728 73.728 73.728h573.442c40.55 0 73.728-33.178 73.728-73.728v-573.442c0-40.55-33.178-73.728-73.728-73.728h-573.442zM155.646 161.28c0-27.034 22.118-49.152 49.152-49.152h172.032v344.064h-221.184v-294.912zM204.798 783.874c-27.034 0-49.152-22.118-49.152-49.152v-253.954h221.184v303.106h-172.032z" />
<glyph unicode="&#xe928;" glyph-name="map" horiz-adv-x="983" d="M607.437 121.348c-5.734 0-11.469 0.819-17.203 1.638l-203.571 50.79c-3.686 0.819-7.373 1.229-11.059 1.229s-7.373 0-10.65-1.229l-144.998-36.454c-5.325-1.229-11.059-2.048-16.794-2.048-4.915 0-9.83 0.41-14.746 1.638-10.24 2.048-20.070 6.963-28.262 13.107-8.602 6.554-15.155 14.746-19.661 24.166-4.915 9.83-6.963 20.070-6.963 31.13v456.704c0 15.565 5.325 30.72 14.746 43.008s22.938 20.89 38.093 24.576l172.442 43.008c5.325 1.229 11.059 2.048 16.794 2.048s11.469-0.819 16.794-2.048l203.98-50.79c3.686-0.819 7.373-1.229 11.059-1.229s6.963 0 10.65 1.229l144.998 36.454c5.325 1.229 11.059 2.048 16.794 2.048 4.915 0 9.83-0.41 14.746-1.638 10.24-2.048 20.070-6.963 28.262-13.517 8.602-6.554 15.155-14.746 20.070-24.166 4.506-9.421 6.963-20.070 6.963-30.72v-456.704c0-15.565-5.325-30.72-14.746-43.008s-22.938-20.89-38.093-24.576l-172.442-43.418c-5.325-1.229-11.059-1.638-16.794-1.638l-0.41 0.41zM780.288 735.748c-3.686 0-7.782-0.41-11.469-1.638l-149.094-37.274v-549.683l171.213 43.008c9.83 2.458 18.432 8.192 24.576 15.974s9.421 17.613 9.421 27.443v457.114c0 6.963-1.229 13.517-4.506 19.661-2.867 6.144-7.373 11.469-12.698 15.974-5.325 4.096-11.878 6.963-18.432 8.602-2.867 0.41-6.144 0.819-9.011 0.819zM387.892 198.762l207.257-51.61v549.683l-207.257 51.61v-549.683zM192.103 705.438c-9.83-2.458-18.432-8.192-24.576-15.974s-9.421-17.613-9.421-27.443v-456.704c0-6.554 1.638-13.517 4.506-19.661s7.373-11.878 12.698-15.974c5.325-4.096 11.878-6.963 18.432-8.602 2.867-0.41 5.734-0.819 8.602-0.819 4.096 0 7.782 0.41 11.469 1.638l149.094 37.274v549.274l-170.803-43.008z" />
<glyph unicode="&#xe929;" glyph-name="graph" d="M172.207 755.569c-28.277 0-51.2 22.923-51.2 51.2s22.923 51.2 51.2 51.2c28.277 0 51.2-22.923 51.2-51.2 0-5.033-0.726-9.897-2.080-14.492 1.115-0.562 2.196-1.229 3.229-2.005l125.585-94.267c8.058 5.289 17.699 8.366 28.058 8.366 19.738 0 36.867-11.169 45.412-27.531l165.23 42.421c1.105 0.284 2.214 0.476 3.315 0.58 5.376 22.525 25.634 39.275 49.805 39.275 28.275 0 51.2-22.923 51.2-51.2 0-2.477-0.175-4.912-0.516-7.295l147.652-117.6c6.997 3.241 14.848 5.058 23.142 5.058 29.453 0 53.333-22.923 53.333-51.2 0-28.279-23.881-51.199-53.333-51.199-29.457 0-53.333 22.921-53.333 51.199 0 4.864 0.704 9.571 2.027 14.028l-142.797 113.733c-7.919-5.018-17.306-7.924-27.375-7.924-17.182 0-32.388 8.464-41.677 21.451-0.273-0.083-0.555-0.16-0.836-0.233l-166.187-42.667c-2.453-0.63-4.915-0.807-7.301-0.582-7.414-19.142-26.002-32.715-47.761-32.715-28.277 0-51.2 22.923-51.2 51.2 0 2.235 0.143 4.437 0.421 6.596-0.39 0.255-0.775 0.525-1.153 0.809l-127.325 95.573c-1.745 1.31-3.231 2.835-4.451 4.512-6.737-3.262-14.298-5.091-22.285-5.091zM611.499 99.558v422.396c0 22.020-18.338 38.4-39.108 38.4h-97.813c-20.774 0-39.113-16.38-39.113-38.4v-422.396h-90.664v268.796c0 21.99-18.332 38.362-39.075 38.4h-97.813c-20.771 0-39.111-16.38-39.111-38.4v-268.796h-31.968c-11.782 0-21.333-9.553-21.333-21.333 0-11.785 9.551-21.333 21.333-21.333h773.332c11.785 0 21.333 9.549 21.333 21.333 0 11.78-9.549 21.333-21.333 21.333h-32v115.196c0 22.020-18.338 38.4-39.108 38.4h-97.813c-20.774 0-39.113-16.38-39.113-38.4v-115.196h-90.633zM568.832 99.558h-90.701v418.129h90.701v-418.129zM302.134 99.558h-90.667v264.529h90.667v-264.529zM835.499 210.487v-110.929h-90.701v110.929h90.701z" />
<glyph unicode="&#xe92a;" glyph-name="greater-then" d="M396.497 307.503c-16.662-16.662-16.662-43.677 0-60.34s43.677-16.662 60.34 0l170.667 170.667c16.662 16.662 16.662 43.677 0 60.34l-170.667 170.667c-16.662 16.662-43.677 16.662-60.34 0s-16.662-43.677 0-60.34l140.497-140.497-140.497-140.497z" />
<glyph unicode="&#xe92b;" glyph-name="less-then" d="M627.503 307.503c16.662-16.662 16.662-43.677 0-60.34s-43.677-16.662-60.34 0l-170.667 170.667c-16.662 16.662-16.662 43.677 0 60.34l170.667 170.667c16.662 16.662 43.677 16.662 60.34 0s16.662-43.677 0-60.34l-140.497-140.497 140.497-140.497z" />
<glyph unicode="&#xe92c;" glyph-name="operator-or" horiz-adv-x="983" d="M395.019 195.027c-3.058 0-5.734 1.147-8.028 3.441s-3.441 4.968-3.441 8.028c0 1.913 0.573 4.207 1.72 6.881l196.116 470.221c1.147 2.294 2.675 4.588 4.588 6.881 2.294 2.294 5.734 3.441 10.322 3.441h22.364c3.060 0 5.734-1.147 8.028-3.441s3.441-4.97 3.441-8.028c0-1.529-0.381-3.823-1.147-6.881l-196.69-470.221c-0.766-1.913-2.486-4.014-5.161-6.308-2.294-2.675-5.542-4.014-9.748-4.014h-22.364z" />
<glyph unicode="&#xe92d;" glyph-name="icon-r-new" d="M604.358 757.362h56.975c41.237 0 74.667-33.429 74.667-74.667 0-17.673-14.327-32-32-32s-32 14.327-32 32c0 5.891-4.776 10.667-10.667 10.667h-56.975c-8.786-24.857-32.492-42.667-60.358-42.667h-149.333c-27.866 0-51.572 17.809-60.358 42.667h-56.975c-5.891 0-10.667-4.776-10.667-10.667v-512c0-5.891 4.776-10.667 10.667-10.667h384c5.891 0 10.667 4.776 10.667 10.667v85.333c0 17.673 14.327 32 32 32s32-14.327 32-32v-85.333c0-41.237-33.429-74.667-74.667-74.667h-384c-41.237 0-74.667 33.429-74.667 74.667v512c0 41.237 33.429 74.667 74.667 74.667h56.975c8.786 24.857 32.492 42.667 60.358 42.667h149.333c27.866 0 51.572-17.809 60.358-42.667zM833.294 553.401c8.084 8.084 11.241 19.867 8.282 30.91s-11.585 19.669-22.628 22.628c-11.043 2.959-22.826-0.198-30.91-8.282l-263.987-263.987-7.538-52.793 52.793 7.538 263.987 263.987zM588.914 227.564l-105.586-15.076c-21.117-3.015-39.217 15.085-36.202 36.202l15.076 105.586c0.979 6.855 4.155 13.208 9.051 18.104l271.531 271.531c24.252 24.252 59.6 33.724 92.729 24.847s59.006-34.754 67.883-67.883c8.877-33.129-0.595-68.477-24.847-92.729l-271.531-271.531c-4.896-4.896-11.249-8.073-18.104-9.051zM394.667 736.028v-21.333h149.333v21.333h-149.333zM362.667 522.695c-17.673 0-32 14.327-32 32s14.327 32 32 32h213.333c17.673 0 32-14.327 32-32s-14.327-32-32-32h-213.333zM362.667 394.695c-17.673 0-32 14.327-32 32s14.327 32 32 32h85.333c17.673 0 32-14.327 32-32s-14.327-32-32-32h-85.333z" />
<glyph unicode="&#xe92e;" glyph-name="reload" d="M510.357 106.667c-86.645 0-162.174 28.292-226.584 84.881-58.251 51.179-94.3 114.355-108.147 189.534-2.365 12.838 7.824 24.252 20.878 24.252 10.73 0 19.788-7.829 22.036-18.321 13.993-65.297 46.295-120.209 96.905-164.736 55.276-48.627 120.245-72.943 194.912-72.943 83.2 0 153.779 28.979 211.733 86.933 57.958 57.954 86.933 128.533 86.933 211.733s-28.975 153.778-86.933 211.733c-57.954 57.955-128.533 86.933-211.733 86.933-44.143 0-85.633-9.327-124.471-27.98s-73.107-44.335-102.81-77.046h84.512c11.782 0 21.333-9.551 21.333-21.333s-9.551-21.333-21.333-21.333h-113.231c-23.564 0-42.667 19.103-42.667 42.667v113.231c0 11.782 9.551 21.333 21.333 21.333s21.333-9.551 21.333-21.333v-80.574c32.985 36.212 71.645 64.438 115.98 84.678s91.008 30.358 140.020 30.358c47.317 0 91.665-8.902 133.047-26.707s77.538-42.175 108.471-73.108c30.933-30.933 55.305-67.090 73.109-108.471s26.705-85.729 26.705-133.047c0-47.317-8.9-91.665-26.705-133.047-17.805-41.378-42.176-77.538-73.109-108.471s-67.089-55.3-108.471-73.109c-41.382-17.805-85.73-26.705-133.047-26.705z" />
<glyph unicode="&#xe92f;" glyph-name="ai_stars" d="M842.261 740.267l70.827-26.027v-0.427c10.24-3.84 16.64-13.227 16.64-23.893s-6.4-20.053-16.64-23.893l-70.827-26.027c-2.56-1.28-5.12-3.413-5.973-6.4l-26.027-70.4c-3.84-10.24-13.227-16.64-23.893-16.64s-20.053 6.4-23.893 16.64l-26.027 70.827c-1.28 2.56-3.413 5.12-6.4 5.973l-70.827 26.027c-10.24 3.84-16.64 13.227-16.64 23.893s6.4 20.053 16.64 23.893l70.827 26.027c2.56 1.28 5.12 3.413 5.973 6.4l26.027 70.827c3.413 8.96 12.8 14.933 23.893 14.933s20.48-5.973 23.893-14.933l26.027-70.827c1.28-2.56 3.413-5.12 6.4-5.973zM804.288 645.973c4.693 12.373 14.080 21.76 26.453 26.453l48.64 17.92-48.64 17.92c-12.373 4.693-21.76 14.080-26.453 26.453l-17.92 48.64-17.92-48.64c-4.693-12.373-14.507-21.76-26.453-26.453l-48.64-17.92 48.64-17.92c12.373-4.693 21.76-14.080 26.453-26.453l17.92-48.64 17.92 48.64zM579.84 507.298l209.067-77.653c11.52-4.267 19.2-15.36 19.2-27.733-0.427-12.373-7.68-23.467-19.627-27.733l-209.067-77.227-6.4-6.4-77.653-209.493c-4.267-11.52-15.36-19.2-27.733-19.2s-23.467 7.253-27.733 19.2l-77.227 209.067-6.4 6.4-209.067 77.227c-11.52 4.267-19.2 14.933-19.2 27.733s7.68 23.467 19.2 28.16l209.493 78.080 6.4 6.4 77.227 209.067c8.533 23.467 46.507 23.467 55.467 0l77.653-209.493 6.4-6.4zM565.76 336.631l163.84 60.587 0.427 0.427c4.267 1.28 4.267 7.253 0 8.96l-163.84 60.587c-14.507 5.12-26.027 16.64-31.573 31.573l-60.587 163.84c-1.28 4.267-7.253 4.267-8.96 0l-60.587-164.267c-5.547-14.507-17.067-26.027-31.573-31.573l-164.267-60.587c-4.267-1.28-4.267-7.253 0-8.96l163.84-60.587c14.507-5.12 26.027-17.067 31.573-31.573l60.587-163.84c1.28-4.267 7.253-4.267 8.96 0l60.587 163.84c5.12 14.507 17.067 26.027 31.573 31.573z" />
<glyph unicode="&#xe930;" glyph-name="icon-more" d="M870.4 396.8c28.16 0 51.2 23.040 51.2 51.2s-23.040 51.2-51.2 51.2c-28.16 0-51.2-23.040-51.2-51.2s23.040-51.2 51.2-51.2zM153.597 396.8c28.16 0 51.2 23.040 51.2 51.2s-23.040 51.2-51.2 51.2c-28.16 0-51.2-23.040-51.2-51.2s23.040-51.2 51.2-51.2zM563.2 448c0-28.16-23.040-51.2-51.2-51.2s-51.2 23.040-51.2 51.2c0 28.16 23.040 51.2 51.2 51.2s51.2-23.040 51.2-51.2z" />
<glyph unicode="&#xe931;" glyph-name="Icon-not-empty" d="M250.299 445.571c0 155.093 125.868 280.96 280.961 280.96 155.095 0 280.961-125.868 280.961-280.96 0-155.095-125.866-280.961-280.961-280.961-155.093 0-280.961 125.866-280.961 280.961zM162.62 445.571c0 203.414 165.226 368.639 368.64 368.639 203.416 0 368.64-165.225 368.64-368.639 0-203.416-165.224-368.64-368.64-368.64-203.414 0-368.64 165.224-368.64 368.64zM192.625 445.571c0-186.659 151.976-338.637 338.634-338.637s338.637 151.978 338.637 338.637c0 186.657-151.978 338.634-338.637 338.634s-338.634-151.976-338.634-338.634z" />
<glyph unicode="&#xe932;" glyph-name="icon-share" d="M501.613 799.422c7.999 7.998 20.967 7.998 28.963 0l129.593-129.592c7.995-7.998 7.995-20.965 0-28.963-7.999-7.998-20.967-7.998-28.963 0l-94.63 94.631v-392.789c0-11.313-9.171-20.48-20.48-20.48-11.313 0-20.48 9.167-20.48 20.48v392.789l-94.632-94.631c-7.998-7.998-20.965-7.998-28.963 0s-7.998 20.965 0 28.963l129.592 129.592zM321.706 531.194c-11.753 0-23.025-4.669-31.336-12.98s-12.98-19.583-12.98-31.334v-311.022c0-11.756 4.669-23.028 12.98-31.338s19.583-12.98 31.336-12.98h388.778c11.751 0 23.024 4.669 31.334 12.98s12.98 19.583 12.98 31.338v311.022c0 11.751-4.669 23.024-12.98 31.334s-19.583 12.98-31.334 12.98h-64.799c-11.309 0-20.48 9.171-20.48 20.48 0 11.311 9.171 20.48 20.48 20.48h64.799c22.614 0 44.306-8.985 60.297-24.978 15.995-15.991 24.977-37.683 24.977-60.297v-311.022c0-22.618-8.983-44.306-24.977-60.301-15.991-15.991-37.683-24.977-60.297-24.977h-388.778c-22.616 0-44.307 8.987-60.299 24.977-15.992 15.995-24.977 37.683-24.977 60.301v311.022c0 22.614 8.984 44.306 24.977 60.297 15.992 15.993 37.683 24.978 60.299 24.978h64.796c11.311 0 20.48-9.169 20.48-20.48 0-11.309-9.169-20.48-20.48-20.48h-64.796z" />
<glyph unicode="&#xe933;" glyph-name="excel" d="M334.080 74.372c-5.973 0-11.093 2.133-16.213 7.253-4.267 4.267-6.4 9.387-6.4 15.36v137.387h-190.72c-6.4 0-11.52 2.133-16.64 6.827-3.84 4.267-5.973 9.813-5.973 15.787v355.839c0 6.4 2.133 11.52 6.827 16.64 4.267 3.84 9.387 5.973 15.787 5.973h190.72v137.387c0 6.4 2.133 11.093 6.4 15.787 4.693 4.693 9.813 6.827 16.213 6.827h569.174c5.973 0 11.093-2.133 16.213-7.253 4.267-4.267 6.4-9.387 6.4-15.36v-675.839c0-6.4-2.133-11.093-6.4-15.787-4.693-4.693-10.24-6.827-16.213-6.827h-569.174zM632.747 102.106h265.387v132.267h-265.387v-132.267zM339.2 102.106h265.814v132.267h-265.814v-132.267zM632.747 262.106h265.387v158.72h-265.387v-158.72zM499.2 262.106h105.813v158.72h-105.813v-158.72zM341.333 282.159h107.094l-91.734 150.187 90.027 148.052h-103.254l-41.387-76.372c-4.267 8.107-8.533 16.213-13.227 24.32-6.827 14.505-14.507 29.865-22.613 45.225l-3.413 6.827h-107.947l87.893-148.479-96-149.76h107.093l44.373 80.64 42.667-80.64h0.427zM632.747 448.559h265.387v159.145h-265.387v-159.145zM499.2 448.559h105.813v159.145h-105.813v-159.145zM632.747 635.438h265.387v132.267h-265.387v-132.267zM339.2 635.438h265.814v132.267h-265.814v-132.267z" />
<glyph unicode="&#xe934;" glyph-name="planned-map" horiz-adv-x="983" d="M204.8 87.552c-40.55 0-73.728 33.178-73.728 73.728v573.442c0 40.55 33.178 73.728 73.728 73.728h573.44c40.55 0 73.728-33.178 73.728-73.728v-573.442c0-40.55-33.178-73.728-73.728-73.728h-573.44zM204.8 783.874c-27.034 0-49.152-22.118-49.152-49.152v-573.442c0-27.034 22.118-49.152 49.152-49.152h274.432v53.248h-106.086c-17.613 0-34.406 6.963-46.694 19.251-12.698 12.698-19.251 29.082-19.251 46.694v372.328c0 17.613 6.963 34.406 19.251 46.694s29.491 19.251 46.694 19.251h26.624l1.638 6.144c4.506 18.432 20.889 31.13 39.731 31.13h38.502v77.005h-274.841zM373.146 648.706c-11.878 0-23.757-4.915-31.949-13.107-8.602-8.602-13.107-20.070-13.107-31.949v-371.919c0-11.878 4.915-23.757 13.517-31.949 8.602-8.602 20.070-13.107 31.949-13.107h106.086v425.167h-38.502c-18.842 0-35.225 12.698-39.731 31.13l-1.638 6.144h-26.624v-0.41zM440.73 685.98c-11.059 0-20.070-9.011-20.070-20.070v-13.517c0-11.059 9.011-20.070 20.070-20.070h38.502v53.658h-38.502z" />
<glyph unicode="&#xe935;" glyph-name="warning" d="M839.184 53.973h-654.334c-15.168 0-30.336 3.838-43.584 10.945-21.696 11.71-37.44 31.101-44.544 54.718s-4.608 48.574 7.104 70.078l326.975 607.682c16.13 29.952 47.235 48.384 81.215 48.384 33.985 0 65.090-18.624 81.22-48.384l327.168-607.682c7.295-13.439 10.94-28.414 10.94-43.774 0-24.576-9.597-47.809-27.070-65.090-17.281-17.469-40.321-26.878-65.090-26.878zM184.85 115.413h654.526c8.258 0 15.938 3.265 21.697 9.023 5.763 5.759 9.023 13.439 9.023 21.697 0 4.993-1.343 10.174-3.645 14.59l-327.361 607.489c-7.873 14.592-21.504 16.128-27.075 16.128-5.566 0-19.198-1.536-27.070-16.128l-327.168-607.682c-3.84-7.295-4.8-15.548-2.304-23.421 2.304-7.873 7.68-14.402 14.784-18.239 4.416-2.306 9.408-3.457 14.592-3.457zM512.020 301.277c-16.323 0-29.954 12.861-30.72 29.184l-10.945 234.238c0 0.192 0 0.384 0 0.576v0.96c-0.193 23.040 18.239 41.856 41.279 42.048 0.766 0 1.536 0 2.302 0 23.040-0.96 40.899-20.544 39.743-43.584l-10.94-234.238c-0.77-16.323-14.402-29.184-30.72-29.184zM512.016 178.786c-21.119 0-38.4 17.281-38.4 38.4s17.281 38.4 38.4 38.4c21.119 0 38.4-17.281 38.4-38.4s-17.281-38.4-38.4-38.4z" />
<glyph unicode="&#xe936;" glyph-name="shrink" horiz-adv-x="1067" d="M562.569 500.045c0-11.78 9.553-21.333 21.333-21.333h192c11.785 0 21.333 9.553 21.333 21.333 0 11.785-9.549 21.333-21.333 21.333h-140.497l243.78 243.78c8.333 8.332 8.333 21.839 0 30.17-8.329 8.331-21.837 8.331-30.17 0l-243.78-243.78v140.497c0 11.782-9.549 21.333-21.333 21.333-11.78 0-21.333-9.551-21.333-21.333v-192.001zM472.704 410.176h-192.002c-11.782 0-21.333-9.553-21.333-21.333s9.551-21.333 21.333-21.333h140.497l-237.008-237.009c-8.331-8.333-8.331-21.837 0-30.17s21.839-8.333 30.17 0l237.011 237.009v-140.497c0-11.78 9.549-21.333 21.333-21.333 11.78 0 21.333 9.553 21.333 21.333v192c0 11.78-9.553 21.333-21.333 21.333z" />
<glyph unicode="&#xe937;" glyph-name="thirds" horiz-adv-x="983" d="M163.838 67.072c-29.491 0-53.248 23.761-53.248 53.248v655.362c0 29.491 23.757 53.248 53.248 53.248h655.362c29.487 0 53.248-23.757 53.248-53.248v-655.362c0-29.487-23.761-53.248-53.248-53.248h-655.362zM380.926 91.648h221.186v712.706h-221.186v-712.706zM163.838 804.354c-15.974 0-28.672-12.698-28.672-28.672v-655.362c0-15.97 12.698-28.672 28.672-28.672h192.512v712.706h-192.512z" />
<glyph unicode="&#xe938;" glyph-name="burger" d="M80.656 755.511c0 11.782 9.551 21.333 21.333 21.333h820.020c11.78 0 21.333-9.551 21.333-21.333s-9.553-21.333-21.333-21.333h-820.020c-11.782 0-21.333 9.551-21.333 21.333zM80.656 448.004c0 11.785 9.551 21.333 21.333 21.333h820.020c11.78 0 21.333-9.549 21.333-21.333 0-11.78-9.553-21.333-21.333-21.333h-820.020c-11.782 0-21.333 9.553-21.333 21.333zM80.656 140.493c0 11.785 9.551 21.333 21.333 21.333h820.020c11.78 0 21.333-9.549 21.333-21.333 0-11.78-9.553-21.333-21.333-21.333h-820.020c-11.782 0-21.333 9.553-21.333 21.333z" />
<glyph unicode="&#xe939;" glyph-name="paper-plane" d="M861.594 797.624l-691.638-242.052 281.995-125.385 124.262 124.265c11.665 11.664 30.575 11.664 42.236 0 11.665-11.664 11.665-30.573 0-42.238l-124.262-124.262 125.367-282.044 242.039 691.717zM435.938 371.938l-306.548 136.299c-9.623 4.297-17.737 11.379-23.293 20.335s-8.299 19.371-7.875 29.901c0.424 10.531 3.996 20.692 10.255 29.171s14.915 14.887 24.853 18.396l0.078 0.027 722.468 252.843c9.348 3.225 19.413 3.756 29.043 1.532 9.634-2.224 18.449-7.114 25.434-14.11s11.861-15.817 14.071-25.453c2.21-9.636 1.668-19.7-1.574-29.041l-0.026-0.080-252.757-722.346c-3.49-9.967-9.903-18.667-18.389-24.947-8.491-6.285-18.675-9.869-29.227-10.295-10.551-0.422-20.988 2.334-29.956 7.915-8.964 5.577-16.047 13.722-20.331 23.373v0l-136.226 306.483z" />
<glyph unicode="&#xe93a;" horiz-adv-x="1003" d="M501.551 949.551c276.999 0 501.551-224.552 501.551-501.551s-224.552-501.551-501.551-501.551c-276.999 0-501.551 224.552-501.551 501.551s224.552 501.551 501.551 501.551z" />
<glyph unicode="&#xe93b;" horiz-adv-x="1003" d="M376.163 259.918v355.265h292.571l-43.802-89.234 43.802-89.192h-271.673v-176.839h-20.898z" />
<glyph unicode="&#xe93c;" glyph-name="icon-excel" d="M669.412 800h-413.412c-5.891 0-10.667-4.776-10.667-10.667v-128c0-17.673-14.327-32-32-32s-32 14.327-32 32v128c0 41.237 33.429 74.667 74.667 74.667h426.667c8.487 0 16.626-3.371 22.627-9.373l128-128c6.001-6.001 9.373-14.14 9.373-22.627v-42.667c0-17.673-14.327-32-32-32s-32 14.327-32 32v29.412l-109.255 109.255zM778.667 149.333c0 17.673 14.327 32 32 32s32-14.327 32-32v-42.667c0-41.237-33.429-74.667-74.667-74.667h-512c-41.237 0-74.667 33.429-74.667 74.667v42.667c0 17.673 14.327 32 32 32s32-14.327 32-32v-42.667c0-5.891 4.776-10.667 10.667-10.667h512c5.891 0 10.667 4.776 10.667 10.667v42.667zM437.333 524.8c0 17.673 14.327 32 32 32s32-14.327 32-32v-238.933c0-17.673-14.327-32-32-32s-32 14.327-32 32v238.933zM469.333 245.333c-17.673 0-32 14.327-32 32s14.327 32 32 32h128c17.673 0 32-14.327 32-32s-14.327-32-32-32h-128zM810.667 373.333c-17.673 0-32 14.327-32 32s14.327 32 32 32h21.333c53.019 0 96-42.981 96-96s-42.981-96-96-96h-106.667c-17.673 0-32 14.327-32 32s14.327 32 32 32h106.667c17.673 0 32 14.327 32 32s-14.327 32-32 32h-21.333zM810.667 437.333c17.673 0 32-14.327 32-32s-14.327-32-32-32h-21.333c-53.019 0-96 42.981-96 96s42.981 96 96 96h64c17.673 0 32-14.327 32-32s-14.327-32-32-32h-64c-17.673 0-32-14.327-32-32s14.327-32 32-32h21.333zM154.626 259.583c-23.667-35.501-76.918 0-53.251 35.501l85.333 128c12.666 18.999 40.585 18.999 53.251 0l85.333-128c23.667-35.501-29.584-71.002-53.251-35.501l-58.708 88.062-58.708-88.062zM272.041 551.084c23.667 35.501 76.918 0 53.251-35.501l-85.333-128c-12.666-18.999-40.585-18.999-53.251 0l-85.333 128c-23.667 35.501 29.584 71.002 53.251 35.501l58.708-88.062 58.708 88.062z" />
<glyph unicode="&#xe93d;" glyph-name="icon-pdf" d="M669.412 800h-413.412c-5.891 0-10.667-4.776-10.667-10.667v-128c0-17.673-14.327-32-32-32s-32 14.327-32 32v128c0 41.237 33.429 74.667 74.667 74.667h426.667c8.487 0 16.626-3.371 22.627-9.373l128-128c6.001-6.001 9.373-14.14 9.373-22.627v-42.667c0-17.673-14.327-32-32-32s-32 14.327-32 32v29.412l-109.255 109.255zM778.667 149.333c0 17.673 14.327 32 32 32s32-14.327 32-32v-42.667c0-41.237-33.429-74.667-74.667-74.667h-512c-41.237 0-74.667 33.429-74.667 74.667v42.667c0 17.673 14.327 32 32 32s32-14.327 32-32v-42.667c0-5.891 4.776-10.667 10.667-10.667h512c5.891 0 10.667 4.776 10.667 10.667v42.667zM757.333 437.333h96c17.673 0 32-14.327 32-32s-14.327-32-32-32h-96v-87.467c0-17.673-14.327-32-32-32s-32 14.327-32 32v238.933c0 1.447 0.096 2.871 0.282 4.267-0.186 1.396-0.282 2.82-0.282 4.267 0 17.673 14.327 32 32 32h128c17.673 0 32-14.327 32-32s-14.327-32-32-32h-96v-64zM202.667 373.333v-87.467c0-17.673-14.327-32-32-32s-32 14.327-32 32v247.467c0 17.673 14.327 32 32 32h64c53.019 0 96-42.981 96-96s-42.981-96-96-96h-32zM202.667 437.333h32c17.673 0 32 14.327 32 32s-14.327 32-32 32h-32v-64zM426.667 565.333h42.667c88.366 0 160-71.634 160-160s-71.634-160-160-160h-42.667c-17.673 0-32 14.327-32 32v256c0 17.673 14.327 32 32 32zM458.667 501.333v-192h10.667c53.019 0 96 42.981 96 96s-42.981 96-96 96h-10.667z" />
<glyph unicode="&#xe93e;" glyph-name="icon-ppt" d="M669.412 800h-413.412c-5.891 0-10.667-4.776-10.667-10.667v-128c0-17.673-14.327-32-32-32s-32 14.327-32 32v128c0 41.237 33.429 74.667 74.667 74.667h426.667c8.487 0 16.626-3.371 22.627-9.373l128-128c6.001-6.001 9.373-14.14 9.373-22.627v-42.667c0-17.673-14.327-32-32-32s-32 14.327-32 32v29.412l-109.255 109.255zM778.667 149.333c0 17.673 14.327 32 32 32s32-14.327 32-32v-42.667c0-41.237-33.429-74.667-74.667-74.667h-512c-41.237 0-74.667 33.429-74.667 74.667v42.667c0 17.673 14.327 32 32 32s32-14.327 32-32v-42.667c0-5.891 4.776-10.667 10.667-10.667h512c5.891 0 10.667 4.776 10.667 10.667v42.667zM202.667 277.333c0-42.667-64-42.667-64 0v256c0 17.673 14.327 32 32 32h64c53.019 0 96-42.981 96-96s-42.981-96-96-96h-32v-96zM202.667 437.333h32c17.673 0 32 14.327 32 32s-14.327 32-32 32h-32v-64zM501.333 277.333c0-42.667-64-42.667-64 0v256c0 17.673 14.327 32 32 32h64c53.019 0 96-42.981 96-96s-42.981-96-96-96h-32v-96zM533.333 437.333c17.673 0 32 14.327 32 32s-14.327 32-32 32h-32v-64h32zM842.667 501.333v-224c0-42.667-64-42.667-64 0v224h-53.333c-42.667 0-42.667 64 0 64h170.667c42.667 0 42.667-64 0-64h-53.333z" />
<glyph unicode="&#xe93f;" glyph-name="icon-txt" d="M669.412 800h-413.412c-5.891 0-10.667-4.776-10.667-10.667v-128c0-17.673-14.327-32-32-32s-32 14.327-32 32v128c0 41.237 33.429 74.667 74.667 74.667h426.667c8.487 0 16.626-3.371 22.627-9.373l128-128c6.001-6.001 9.373-14.14 9.373-22.627v-42.667c0-17.673-14.327-32-32-32s-32 14.327-32 32v29.412l-109.255 109.255zM778.667 149.333c0 17.673 14.327 32 32 32s32-14.327 32-32v-42.667c0-41.237-33.429-74.667-74.667-74.667h-512c-41.237 0-74.667 33.429-74.667 74.667v42.667c0 17.673 14.327 32 32 32s32-14.327 32-32v-42.667c0-5.891 4.776-10.667 10.667-10.667h512c5.891 0 10.667 4.776 10.667 10.667v42.667zM473.541 405.333l-73.5 110.25c-23.667 35.501 29.584 71.002 53.251 35.501l58.708-88.062 58.708 88.062c23.667 35.501 76.918 0 53.251-35.501l-73.5-110.25 73.5-110.25c23.667-35.501-29.584-71.002-53.251-35.501l-58.708 88.062-58.708-88.062c-23.667-35.501-76.918 0-53.251 35.501l73.5 110.25zM245.333 501.333v-224c0-42.667-64-42.667-64 0v224h-53.333c-42.667 0-42.667 64 0 64h170.667c42.667 0 42.667-64 0-64h-53.333zM842.667 501.333v-224c0-42.667-64-42.667-64 0v224h-53.333c-42.667 0-42.667 64 0 64h170.667c42.667 0 42.667-64 0-64h-53.333z" />
<glyph unicode="&#xe940;" glyph-name="icon-word" d="M669.412 800h-413.412c-5.891 0-10.667-4.776-10.667-10.667v-128c0-17.673-14.327-32-32-32s-32 14.327-32 32v128c0 41.237 33.429 74.667 74.667 74.667h426.667c8.487 0 16.626-3.371 22.627-9.373l128-128c6.001-6.001 9.373-14.14 9.373-22.627v-42.667c0-17.673-14.327-32-32-32s-32 14.327-32 32v29.412l-109.255 109.255zM778.667 149.333c0 17.673 14.327 32 32 32s32-14.327 32-32v-42.667c0-41.237-33.429-74.667-74.667-74.667h-512c-41.237 0-74.667 33.429-74.667 74.667v42.667c0 17.673 14.327 32 32 32s32-14.327 32-32v-42.667c0-5.891 4.776-10.667 10.667-10.667h512c5.891 0 10.667 4.776 10.667 10.667v42.667zM847.737 324.323c12.704 12.286 32.962 11.947 45.249-0.757s11.947-32.962-0.757-45.249c-21.717-21.003-50.737-32.984-81.562-32.984-64.801 0-117.333 52.532-117.333 117.333v85.333c0 64.801 52.532 117.333 117.333 117.333 32.463 0 62.883-13.292 84.86-36.303 12.206-12.781 11.741-33.037-1.040-45.243s-33.037-11.741-45.243 1.040c-10.023 10.494-23.781 16.506-38.578 16.506-29.455 0-53.333-23.878-53.333-53.333v-85.333c0-29.455 23.878-53.333 53.333-53.333 14.053 0 27.171 5.416 37.070 14.989zM128 565.333h42.667c88.366 0 160-71.634 160-160s-71.634-160-160-160h-42.667c-17.673 0-32 14.327-32 32v256c0 17.673 14.327 32 32 32zM160 309.333h10.667c53.019 0 96 42.981 96 96s-42.981 96-96 96h-10.667v-192zM512 565.333c64.801 0 117.333-52.532 117.333-117.333v-85.333c0-64.801-52.532-117.333-117.333-117.333s-117.333 52.532-117.333 117.333v85.333c0 64.801 52.532 117.333 117.333 117.333zM512 501.333c-29.455 0-53.333-23.878-53.333-53.333v-85.333c0-29.455 23.878-53.333 53.333-53.333s53.333 23.878 53.333 53.333v85.333c0 29.455-23.878 53.333-53.333 53.333z" />
<glyph unicode="&#xe941;" glyph-name="mail" d="M213.333 672c-29.455 0-53.333-23.878-53.333-53.333v-341.333c0-29.455 23.878-53.333 53.333-53.333h597.333c29.455 0 53.333 23.878 53.333 53.333v341.333c0 29.455-23.878 53.333-53.333 53.333h-597.333zM213.333 736h597.333c64.801 0 117.333-52.532 117.333-117.333v-341.333c0-64.801-52.532-117.333-117.333-117.333h-597.333c-64.801 0-117.333 52.532-117.333 117.333v341.333c0 64.801 52.532 117.333 117.333 117.333zM834.133 686.933c14.138 10.604 34.196 7.738 44.8-6.4s7.738-34.196-6.4-44.8l-341.333-256c-11.378-8.533-27.022-8.533-38.4 0l-341.333 256c-14.138 10.604-17.004 30.662-6.4 44.8s30.662 17.004 44.8 6.4l322.133-241.6 322.133 241.6z" />
<glyph unicode="&#xe942;" glyph-name="icon-emtpyfile" d="M669.412 800h-413.412c-5.891 0-10.667-4.776-10.667-10.667v-128c0-17.673-14.327-32-32-32s-32 14.327-32 32v128c0 41.237 33.429 74.667 74.667 74.667h426.667c8.487 0 16.626-3.371 22.627-9.373l128-128c6.001-6.001 9.373-14.14 9.373-22.627v-42.667c0-17.673-14.327-32-32-32s-32 14.327-32 32v29.412l-109.255 109.255zM778.667 661.333c0 17.673 14.327 32 32 32s32-14.327 32-32v-554.667c0-41.237-33.429-74.667-74.667-74.667h-512c-41.237 0-74.667 33.429-74.667 74.667v554.667c0 17.673 14.327 32 32 32s32-14.327 32-32v-554.667c0-5.891 4.776-10.667 10.667-10.667h512c5.891 0 10.667 4.776 10.667 10.667v554.667z" />
<glyph unicode="&#xe943;" glyph-name="icon-folder" d="M804.103 677.818c45.036 0 81.231-37.072 81.231-82.424v-395.636c0-45.352-36.194-82.424-81.231-82.424h-584.205c-45.036 0-81.231 37.072-81.231 82.424v496.485c0 45.352 36.194 82.424 81.231 82.424h165.744c25.744 0 49.906-12.374 65.203-33.264l49.488-67.584h303.77zM821.333 595.394c0 10.345-7.888 18.424-17.231 18.424h-320c-10.201 0-19.791 4.864-25.818 13.095l-59.077 80.679c-3.298 4.504-8.319 7.075-13.566 7.075h-165.744c-9.342 0-17.231-8.080-17.231-18.424v-496.485c0-10.345 7.888-18.424 17.231-18.424h584.205c9.342 0 17.231 8.080 17.231 18.424v395.636z" />
<glyph unicode="&#xe944;" glyph-name="icon-sort-small" d="M720.644 664.233c5.328 7.531 6.185 17.608 2.214 26.028s-12.089 13.739-20.969 13.739h-422.444c-8.88 0-16.998-5.319-20.969-13.739s-3.114-18.497 2.214-26.028l183.054-260.747v-186.631c0-9.414 5.017-18.020 12.96-22.23s17.447-3.302 24.551 2.347l46.889 37.282c5.903 4.694 9.378 12.060 9.378 19.883v149.375l183.124 260.722z" />
<glyph unicode="&#xe945;" glyph-name="clear-filters" d="M832.934 86.716l-208.277 208.277v-166.758c0-23.953-10.812-47.070-30.089-62.123l-68.407-53.419c-23.424-18.291-55.245-21.397-81.783-7.582-26.268 13.675-41.871 40.951-41.871 69.7v298.099l-257.48 316.005c-0.534 0.656-1.049 1.327-1.543 2.013-16.976 23.568-19.573 54.669-7.071 80.703 1.24 2.583 2.615 5.084 4.114 7.492l-46.836 46.837c-11.142 11.142-11.142 29.207 0 40.349s29.207 11.142 40.349 0l53.051-53.051c0.151 0.038 0.302 0.075 0.453 0.112l40.521-40.521h-0.564l368.068-368.067 0.256 0.307 30.323-30.323-0.252-0.311 247.39-247.39c11.14-11.14 11.14-29.205 0-40.35-11.145-11.14-29.21-11.14-40.35 0zM581.99 337.66l-409.401 409.402c-2.924-10.602-0.984-22.172 5.514-31.194l267.072-327.776v-313.28c0-13.491 7.317-25.822 18.906-31.855s25.455-4.732 35.819 3.362l68.412 53.423c8.61 6.724 13.679 17.28 13.679 28.493v209.425zM882.236 688.908l-228.992-280.9-30.323 30.323 226.244 277.536c7.774 10.792 9.024 25.23 3.23 37.295s-17.638 19.687-30.592 19.687h-533.399l-42.667 42.667h576.066c30.042 0 56.457-17.655 69.052-43.884 12.501-26.034 9.907-57.135-7.070-80.703-0.495-0.689-1.011-1.363-1.549-2.021z" />
<glyph unicode="&#xe946;" glyph-name="sort" d="M256 512l256 256 256-256zM256 384l256-256 256 256z" />
<glyph unicode="&#xe947;" d="M256 512l256 256 256-256z" />
<glyph unicode="&#xe948;" d="M256 384l256-256 256 256z" />
<glyph unicode="&#xe94b;" glyph-name="checkbox-off" d="M213.333 874.667h597.333c70.692 0 128-57.308 128-128v-597.333c0-70.692-57.308-128-128-128h-597.333c-70.692 0-128 57.308-128 128v597.333c0 70.692 57.308 128 128 128zM213.333 810.667c-35.346 0-64-28.654-64-64v-597.333c0-35.346 28.654-64 64-64h597.333c35.346 0 64 28.654 64 64v597.333c0 35.346-28.654 64-64 64h-597.333z" />
<glyph unicode="&#xe94c;" glyph-name="checkbox-on" d="M213.333 874.667h597.333c70.692 0 128-57.308 128-128v-597.333c0-70.692-57.308-128-128-128h-597.333c-70.692 0-128 57.308-128 128v597.333c0 70.692 57.308 128 128 128zM213.333 810.667c-35.346 0-64-28.654-64-64v-597.333c0-35.346 28.654-64 64-64h597.333c35.346 0 64 28.654 64 64v597.333c0 35.346-28.654 64-64 64h-597.333zM451.297 353.978l-92.181 114.129c-11.105 13.749-31.252 15.892-45.001 4.787s-15.892-31.252-4.787-45.001l114.872-142.222c12.064-14.936 34.474-15.961 47.85-2.187l276.239 284.444c12.313 12.678 12.016 32.937-0.662 45.25s-32.937 12.016-45.25-0.662l-251.080-258.538z" />
<glyph unicode="&#xe94d;" glyph-name="iconon-creditc-card" d="M117.333 544v-299.228c0-35.036 28.402-63.439 63.439-63.439h662.456c35.036 0 63.439 28.402 63.439 63.439v299.228h-789.333zM180.772 778.667h662.456c70.382 0 127.439-57.056 127.439-127.439v-406.456c0-70.382-57.056-127.439-127.439-127.439h-662.456c-70.382 0-127.439 57.056-127.439 127.439v406.456c0 70.382 57.056 127.439 127.439 127.439zM906.667 651.228c0 35.036-28.402 63.439-63.439 63.439h-662.456c-35.036 0-63.439-28.402-63.439-63.439v-43.228h789.333v43.228z" />
<glyph unicode="&#xe94f;" glyph-name="icon-not-saved" d="M757.143 599.226c27.867-45.088 42.857-97.093 42.857-151.226 0-159.058-128.942-288-288-288s-288 128.942-288 288c0 159.058 128.942 288 288 288 101.006 0 193.024-52.447 245.143-136.774zM702.702 565.578c-40.575 65.65-112.109 106.422-190.702 106.422-123.712 0-224-100.288-224-224s100.288-224 224-224c123.712 0 224 100.288 224 224 0 42.161-11.636 82.53-33.298 117.578zM384 416c-17.673 0-32 14.327-32 32s14.327 32 32 32h256c17.673 0 32-14.327 32-32s-14.327-32-32-32h-256z" />
<glyph unicode="&#xe950;" glyph-name="icon-add-tiny" d="M544 480h138.667c17.673 0 32-14.327 32-32s-14.327-32-32-32h-138.667v-138.667c0-17.673-14.327-32-32-32s-32 14.327-32 32v138.667h-138.667c-17.673 0-32 14.327-32 32s14.327 32 32 32h138.667v138.667c0 17.673 14.327 32 32 32s32-14.327 32-32v-138.667zM298.667 821.333h426.667c88.366 0 160-71.634 160-160v-426.667c0-88.366-71.634-160-160-160h-426.667c-88.366 0-160 71.634-160 160v426.667c0 88.366 71.634 160 160 160zM298.667 757.333c-53.019 0-96-42.981-96-96v-426.667c0-53.019 42.981-96 96-96h426.667c53.019 0 96 42.981 96 96v426.667c0 53.019-42.981 96-96 96h-426.667z" />
<glyph unicode="&#xe95f;" glyph-name="icon-add-small-withbg" d="M512 21.333c-235.641 0-426.667 191.025-426.667 426.667s191.025 426.667 426.667 426.667c235.641 0 426.667-191.025 426.667-426.667s-191.025-426.667-426.667-426.667zM544 480v181.333c0 17.673-14.327 32-32 32s-32-14.327-32-32v-181.333h-181.333c-17.673 0-32-14.327-32-32s14.327-32 32-32h181.333v-181.333c0-17.673 14.327-32 32-32s32 14.327 32 32v181.333h181.333c17.673 0 32 14.327 32 32s-14.327 32-32 32h-181.333z" />
<glyph unicode="&#xe960;" glyph-name="icon-done-small-outline" d="M438.716 325.534l-115.155 142.573c-11.105 13.749-31.252 15.892-45.001 4.787s-15.892-31.252-4.787-45.001l137.846-170.667c12.064-14.936 34.474-15.961 47.85-2.187l331.487 341.333c12.313 12.678 12.016 32.937-0.662 45.25s-32.937 12.016-45.25-0.662l-306.328-315.427z" />
<glyph unicode="&#xe961;" glyph-name="icon-list-outlined" d="M277.333 821.333h426.667c53.019 0 96-42.981 96-96v-512c0-53.019-42.981-96-96-96h-426.667c-53.019 0-96 42.981-96 96v512c0 53.019 42.981 96 96 96zM277.333 757.333c-17.673 0-32-14.327-32-32v-512c0-17.673 14.327-32 32-32h426.667c17.673 0 32 14.327 32 32v512c0 17.673-14.327 32-32 32h-426.667zM341.333 586.667c-17.673 0-32 14.327-32 32s14.327 32 32 32h213.333c17.673 0 32-14.327 32-32s-14.327-32-32-32h-213.333zM341.333 416c-17.673 0-32 14.327-32 32s14.327 32 32 32h298.667c17.673 0 32-14.327 32-32s-14.327-32-32-32h-298.667zM341.333 288c-17.673 0-32 14.327-32 32s14.327 32 32 32h298.667c17.673 0 32-14.327 32-32s-14.327-32-32-32h-298.667z" />
<glyph unicode="&#xe962;" glyph-name="fax" d="M480.053 778.215c1.636 47.654 40.783 85.785 88.836 85.785h204.032c23.567-0.021 46.161-9.399 62.783-26.042l23.615-23.577c16.667-16.678 26.025-39.295 26.015-62.86v-25.382c50.136-20.686 85.333-71.622 85.333-130.745v-380.121c0-77.301-60.169-140.606-135.226-140.606h-318.909c-32.041-51.246-88.973-85.333-153.866-85.333s-121.824 34.087-153.866 85.333h-10.527c-79.775 0-144.941 62.665-144.941 140.606v380.121c0 77.941 65.167 140.606 144.941 140.606h10.527c32.041 51.246 88.973 85.333 153.866 85.333 44.772 0 85.754-16.226 117.387-43.118zM544 736h277.333v15.536c0.003 6.602-2.617 12.935-7.259 17.579l-23.622 23.584c-4.663 4.669-10.989 7.295-17.56 7.301h-204.004c-13.746 0-24.889-11.143-24.889-24.889v-39.111zM541.185 138.667h294.255c38.963 0 71.226 33.944 71.226 76.606v380.121c0 42.662-32.263 76.606-71.226 76.606h-294.255c1.85-10.387 2.815-21.081 2.815-32v-469.333c0-10.919-0.965-21.613-2.815-32v0zM183.939 139.861c-1.713 10.012-2.606 20.304-2.606 30.805v469.333c0 10.501 0.893 20.793 2.606 30.805-38.046-6.424-66.606-37.964-66.606-75.411v-380.121c0-37.447 28.56-68.987 66.606-75.411v0zM362.667 757.333c-64.801 0-117.333-52.532-117.333-117.333v-469.333c0-64.801 52.532-117.333 117.333-117.333s117.333 52.532 117.333 117.333v469.333c0 64.801-52.532 117.333-117.333 117.333zM640 544c-17.673 0-32 14.327-32 32s14.327 32 32 32h170.667c17.673 0 32-14.327 32-32s-14.327-32-32-32h-170.667zM640 373.333c-17.673 0-32 14.327-32 32s14.327 32 32 32h42.667c17.673 0 32-14.327 32-32s-14.327-32-32-32h-42.667zM768 373.333c-17.673 0-32 14.327-32 32s14.327 32 32 32h42.667c17.673 0 32-14.327 32-32s-14.327-32-32-32h-42.667zM640 202.667c-17.673 0-32 14.327-32 32s14.327 32 32 32h42.667c17.673 0 32-14.327 32-32s-14.327-32-32-32h-42.667zM768 202.667c-17.673 0-32 14.327-32 32s14.327 32 32 32h42.667c17.673 0 32-14.327 32-32s-14.327-32-32-32h-42.667z" />
<glyph unicode="&#xe96a;" d="M762.272 846.305c20.566-6.682 38.489-19.704 51.2-37.199l135.12-185.977c12.711-17.495 19.557-38.564 19.557-60.189v-229.88c0-21.625-6.846-42.694-19.557-60.189l-135.12-185.977c-12.711-17.495-30.634-30.517-51.2-37.199l-218.629-71.037c-20.566-6.682-42.72-6.682-63.287 0l-218.629 71.037c-20.566 6.682-38.489 19.704-51.2 37.199l-135.12 185.977c-12.711 17.495-19.557 38.564-19.557 60.189v229.88c0 21.625 6.846 42.694 19.557 60.189l135.12 185.977c12.711 17.495 30.634 30.517 51.2 37.199l218.629 71.037c18.281 5.94 37.817 6.6 56.377 1.98l6.91-1.98 218.629-71.037zM518.379 853.485c-5.62 1.069-11.443 0.713-16.927-1.069l-218.629-71.037c-6.855-2.227-12.83-6.568-17.067-12.4l-135.12-185.977c-4.237-5.832-6.519-12.855-6.519-20.063v-229.88c0-7.208 2.282-14.231 6.519-20.063l135.12-185.977c4.237-5.832 10.211-10.172 17.067-12.4l218.629-71.037c6.855-2.227 14.24-2.227 21.096 0l218.629 71.037c6.855 2.227 12.83 6.568 17.067 12.4l135.12 185.977c4.237 5.832 6.519 12.855 6.519 20.063v229.88c0 7.208-2.282 14.231-6.519 20.063l-135.12 185.977c-4.237 5.832-10.211 10.172-17.067 12.4l-218.629 71.037-4.168 1.069z" />
<glyph unicode="&#xe96b;" d="M531.247 356.457c2.134-22.753-3.832-44.971-18.269-61.944l-4.148-4.495-62.368-62.368c-34.172-34.172-94.292-29.456-134.282 10.533-38.509 38.509-44.308 95.684-14.171 130.381l3.637 3.901 62.368 62.368c17.578 17.578 42.023 24.866 67.061 22.356 21.526-2.158 38.617-5.786 52.164-11.786l-117.091-117.048c-9.997-9.997-9.997-26.206 0-36.204s26.206-9.997 36.204 0l117.158 117.129c6.084-13.671 9.685-30.964 11.736-52.824z" />
<glyph unicode="&#xe96c;" d="M722.154 648.157c39.99-39.99 44.706-100.11 10.533-134.282l-62.368-62.368c-17.433-17.433-41.618-24.745-66.439-22.417-21.86 2.051-39.153 5.652-52.824 11.736l116.793 116.821c9.997 9.997 9.997 26.206 0 36.204s-26.206 9.997-36.204 0l-116.711-116.755c-6 13.547-9.628 30.638-11.786 52.164-2.51 25.038 4.778 49.483 22.356 67.061l62.368 62.368c34.172 34.172 94.292 29.456 134.282-10.533z" />
<glyph unicode="&#xe96d;" d="M317.877 630.055l72.408-72.408c9.997-9.997 26.206-9.997 36.204 0s9.997 26.206 0 36.204l-72.408 72.408c-9.997 9.997-26.206 9.997-36.204 0s-9.997-26.206 0-36.204z" />
<glyph unicode="&#xe96e;" d="M423.097 698.637l17.669-65.941c3.659-13.657 17.697-21.761 31.353-18.102s21.761 17.697 18.102 31.353l-17.669 65.941c-3.659 13.657-17.697 21.761-31.353 18.102s-21.761-17.697-18.102-31.353z" />
<glyph unicode="&#xe96f;" d="M272.275 511.515l65.971-17.554c13.663-3.635 27.686 4.494 31.322 18.157s-4.494 27.686-18.157 31.322l-65.971 17.554c-13.663 3.635-27.686-4.494-31.322-18.157s4.494-27.686 18.157-31.322z" />
<glyph unicode="&#xe970;" d="M706.852 241.080l-72.408 72.408c-9.997 9.997-9.997 26.206 0 36.204s26.206 9.997 36.204 0l72.408-72.408c9.997-9.997 9.997-26.206 0-36.204s-26.206-9.997-36.204 0z" />
<glyph unicode="&#xe971;" d="M775.435 346.299l-65.941 17.669c-13.657 3.659-21.761 17.697-18.102 31.353s17.697 21.761 31.353 18.102l65.941-17.669c13.657-3.659 21.761-17.697 18.102-31.353s-17.697-21.761-31.353-18.102z" />
<glyph unicode="&#xe972;" d="M588.312 195.477l-17.554 65.971c-3.635 13.663 4.494 27.686 18.157 31.322s27.686-4.494 31.322-18.157l17.554-65.971c3.635-13.663-4.494-27.686-18.157-31.322s-27.686 4.494-31.322 18.157z" />
<glyph unicode="&#xe979;" glyph-name="match-auto" d="M341.333 778.667c17.673 0 32-14.327 32-32 0-16.2-12.039-29.589-27.658-31.708l-4.342-0.292h-76.8c-9.426 0-17.265-6.792-18.891-15.749l-0.309-3.451v-76.8c0-17.673-14.327-32-32-32-16.2 0-29.589 12.039-31.708 27.658l-0.292 4.342v76.8c0 43.861 33.941 79.796 76.991 82.972l6.209 0.228h76.8zM477.867 445.867c16.2 0 29.589-12.039 31.708-27.658l0.292-4.342v-166.4c0-17.673-14.327-32-32-32-16.2 0-29.589 12.039-31.708 27.658l-0.292 4.342-0.043 89.131-209.863-209.891c-12.497-12.497-32.758-12.497-45.255 0-11.361 11.361-12.393 29.138-3.098 41.666l3.098 3.589 209.891 209.949-89.131-0.043c-16.2 0-29.589 12.039-31.708 27.658l-0.292 4.342c0 16.2 12.039 29.589 27.658 31.708l4.342 0.292h166.4zM833.294 769.294c11.361-11.361 12.393-29.138 3.098-41.666l-3.098-3.589-209.934-209.906h89.173c16.2 0 29.589-12.039 31.708-27.658l0.292-4.342c0-16.2-12.039-29.589-27.658-31.708l-4.342-0.292h-166.4c-16.2 0-29.589 12.039-31.708 27.658l-0.292 4.342v166.4c0 17.673 14.327 32 32 32 16.2 0 29.589-12.039 31.708-27.658l0.292-4.342v-89.088l209.906 209.849c12.497 12.497 32.758 12.497 45.255 0zM810.667 309.333c16.2 0 29.589-12.039 31.708-27.658l0.292-4.342v-76.8c0-43.861-33.941-79.796-76.991-82.972l-6.209-0.228h-76.8c-17.673 0-32 14.327-32 32 0 16.2 12.039 29.589 27.658 31.708l4.342 0.292h76.8c9.426 0 17.265 6.792 18.891 15.749l0.309 3.451v76.8c0 17.673 14.327 32 32 32z" />
<glyph unicode="&#xe97a;" glyph-name="match-partial" d="M512 778.667c-182.622 0-330.667-148.045-330.667-330.667s148.045-330.667 330.667-330.667c182.622 0 330.667 148.045 330.667 330.667s-148.045 330.667-330.667 330.667zM512 714.667c147.276 0 266.667-119.391 266.667-266.667s-119.391-266.667-266.667-266.667c-147.276 0-266.667 119.391-266.667 266.667s119.391 266.667 266.667 266.667zM300.811 659.189c-116.637-116.637-116.637-305.742 0-422.378s305.742-116.637 422.378 0l-422.378 422.378z" />
<glyph unicode="&#xe97d;" glyph-name="e-mail" d="M607.606 852.839c183.851-43.396 314.864-204.988 320.251-392.815l0.173-12.024v-76.803c0-74.229-60.176-134.404-134.406-134.404-54.604 0-105.338 32.124-128.981 77.933-37.096-42.534-91.718-69.391-152.613-69.391-111.93 0-202.667 90.737-202.667 202.667s90.737 202.667 202.667 202.667c108.821 0 197.609-85.766 202.458-193.39l0.209-9.279v-76.803c0-36.602 37.688-70.404 78.927-70.404 36.838 0 67.068 28.29 70.148 64.329l0.258 6.075v76.802c-0.007 163.238-112.25 305.050-271.126 342.551s-322.688-39.152-395.692-185.156c-73.004-146.004-36.040-323.042 89.286-427.639s306.126-109.302 436.724-11.365c14.139 10.603 34.197 7.737 44.8-6.402s7.737-34.197-6.402-44.8c-154.343-115.744-368.015-110.184-516.129 13.432s-191.799 332.845-105.521 505.397c86.278 172.552 279.875 263.142 467.638 218.823zM512.029 586.669c-76.583 0-138.667-62.083-138.667-138.667s62.083-138.667 138.667-138.667c76.583 0 138.667 62.083 138.667 138.667s-62.083 138.667-138.667 138.667z" />
<glyph unicode="&#xe97e;" glyph-name="user" d="M373.333 661.333c0 76.584 62.084 138.667 138.667 138.667s138.667-62.083 138.667-138.667c0-76.584-62.084-138.667-138.667-138.667s-138.667 62.083-138.667 138.667zM512 864c-111.93 0-202.667-90.737-202.667-202.667s90.737-202.667 202.667-202.667c111.932 0 202.667 90.737 202.667 202.667s-90.735 202.667-202.667 202.667zM245.333 106.667c0 147.277 119.391 266.667 266.667 266.667s266.667-119.39 266.667-266.667c0-17.673 14.327-32 32-32s32 14.327 32 32c0 182.622-148.045 330.667-330.667 330.667s-330.667-148.045-330.667-330.667c0-17.673 14.327-32 32-32s32 14.327 32 32z" />
<glyph unicode="&#xe982;" glyph-name="absence" d="M264.496 727.505c-77.181-68.396-125.83-168.269-125.83-279.505 0-24.128 2.286-47.714 6.653-70.562l91.138 62.852c2.887 1.993 4.611 5.274 4.611 8.781v36.378c0 33.493 22.3 62.885 54.553 71.907l48.587 13.591c4.608 1.289 7.793 5.488 7.793 10.272v80.448c0 3.581-1.797 6.923-4.784 8.898l-74.731 49.409c-3.168 2.094-5.841 4.655-7.991 7.531zM317.664 766.828l64.851-42.877c20.91-13.824 33.487-37.218 33.487-62.284v-80.448c0-33.491-22.3-62.887-54.553-71.907l-48.587-13.589c-4.608-1.289-7.793-5.491-7.793-10.274v-36.378c0-24.55-12.067-47.531-32.277-61.466l-105.295-72.614c-1.174-0.811-2.383-1.532-3.618-2.163 14.261-36.702 34.161-70.583 58.643-100.604 11.17-13.696 9.122-33.852-4.574-45.022s-33.853-9.122-45.023 4.574c-61.41 75.298-98.259 171.499-98.259 276.224 0 241.533 195.801 437.333 437.333 437.333 154.662 0 290.547-80.309 368.26-201.351 21.636-33.7 38.784-70.579 50.581-109.787 5.094-16.923-4.497-34.771-21.423-39.863-16.922-5.094-34.769 4.499-39.863 21.422-10.057 33.422-24.678 64.88-43.149 93.652-30.374 47.31-71.108 87.297-118.993 116.769l-33.971-76.83c-1.583-3.607-1.92-8.135-0.721-12.236l14.49-49.443c4.966-16.96-4.753-34.737-21.713-39.708s-34.735 4.75-39.706 21.71l-14.494 49.464c-5.372 18.373-4.169 38.406 3.563 55.981l35.294 79.829c-42.735 17.031-89.353 26.391-138.155 26.391-71.189 0-137.727-19.926-194.336-54.505zM592.883 456.324l159.121-103.889c7.881-5.141 17.626-6.558 26.641-3.866l48.619 14.502c0.602 0.179 1.203 0.375 1.796 0.593 16.606 6.046 34.97-2.517 41.015-19.123 6.042-16.61-2.522-34.974-19.127-41.015l-100.233-36.484c-8.845-3.217-15.821-10.163-19.076-18.991l-56.981-154.415c-1.084-2.944-3.409-5.261-6.357-6.332l-23.45-8.533-11.772 103.45c-1.109 9.741-6.622 18.441-14.963 23.599-8.341 5.154-18.586 6.204-27.802 2.842l-95.147-34.718c-20.501-7.479-43.49-1.715-58.039 14.554l-72.601 81.199c-5.030 5.623-2.788 14.554 4.303 17.131l42.477 15.462 54.92-51.998c8.806-8.341 21.577-10.982 32.973-6.822l119.398 43.597c9.545 3.482 16.866 11.29 19.729 21.039s0.926 20.275-5.218 28.369l-82.782 109.047 32.934 11.985c3.213 1.169 6.788 0.73 9.621-1.182zM628.463 509.521c-19.785 13.248-44.706 16.273-67.089 8.128l-73.724-26.837c-9.553-3.473-16.883-11.281-19.755-21.035-2.867-9.749-0.934-20.284 5.214-28.382l82.807-109.086-60.066-21.931-54.903 51.981c-8.802 8.333-21.555 10.978-32.945 6.835l-61.061-22.225c-49.638-18.069-65.333-80.555-30.124-119.932l72.603-81.199c32.003-35.793 82.583-48.474 127.686-32.017l56.977 20.791 11.767-103.415c1.109-9.741 6.618-18.436 14.955-23.595 8.333-5.158 18.573-6.212 27.785-2.859l61.598 22.421c20.634 7.509 36.915 23.718 44.514 44.314l51.84 140.497 86.293 31.407c49.822 18.133 75.511 73.225 57.378 123.046-18.014 49.493-72.503 75.17-122.065 57.728l-33.583-10.018-146.103 95.381z" />
<glyph unicode="&#xe984;" glyph-name="camera" d="M498.816 757.333c-3.409 0-6.618-1.633-8.623-4.393l-52.019-71.524c-14.051-19.319-36.497-30.75-60.386-30.75h-207.121c-29.455 0-53.333-23.878-53.333-53.333v-405.333c0-29.457 23.878-53.333 53.333-53.333h682.667c29.457 0 53.333 23.876 53.333 53.333v405.333c0 29.455-23.876 53.333-53.333 53.333h-17.715c-21.299 0-41.583 9.095-55.753 24.998l-69.577 78.097c-2.027 2.272-4.924 3.571-7.966 3.571h-203.507zM438.434 790.583c14.050 19.319 36.497 30.75 60.382 30.75h203.507c21.299 0 41.583-9.095 55.753-24.998l69.577-78.097c2.022-2.272 4.919-3.571 7.966-3.571h17.715c64.802 0 117.333-52.532 117.333-117.333v-405.333c0-64.802-52.531-117.333-117.333-117.333h-682.667c-64.801 0-117.333 52.531-117.333 117.333v405.333c0 64.801 52.532 117.333 117.333 117.333h53.333v32c0 17.673 14.327 32 32 32s32-14.327 32-32v-32h89.788c3.413 0 6.619 1.633 8.627 4.393l52.019 71.524zM181.333 554.667c0 29.455 23.878 53.333 53.333 53.333s53.333-23.878 53.333-53.333c0-29.457-23.878-53.333-53.333-53.333s-53.333 23.876-53.333 53.333zM234.667 544c5.891 0 10.667 4.776 10.667 10.667s-4.776 10.667-10.667 10.667c-5.891 0-10.667-4.776-10.667-10.667s4.776-10.667 10.667-10.667zM597.333 544c-76.582 0-138.667-62.084-138.667-138.667s62.084-138.667 138.667-138.667c76.582 0 138.667 62.084 138.667 138.667s-62.084 138.667-138.667 138.667zM394.667 405.333c0 111.932 90.735 202.667 202.667 202.667s202.667-90.735 202.667-202.667c0-111.932-90.735-202.667-202.667-202.667s-202.667 90.735-202.667 202.667z" />
<glyph unicode="&#xe985;" glyph-name="clock" d="M512 823.271c-207.255 0-375.271-168.015-375.271-375.271 0-207.258 168.015-375.275 375.271-375.275 207.258 0 375.275 168.017 375.275 375.275 0 207.255-168.017 375.271-375.275 375.271zM72.729 448c0 242.602 196.669 439.271 439.271 439.271 242.607 0 439.275-196.669 439.275-439.271 0-242.607-196.668-439.275-439.275-439.275-242.602 0-439.271 196.668-439.271 439.275zM512.004 735.999c17.673 0 32-14.327 32-32v-242.746l136.081-136.081c12.497-12.497 12.497-32.759 0-45.252-12.497-12.497-32.759-12.497-45.257 0l-145.455 145.451c-5.999 6.003-9.37 14.144-9.37 22.63v255.999c0 17.673 14.323 32 32 32z" />
<glyph unicode="&#xe986;" glyph-name="File" d="M138.667 725.333c0 53.019 42.981 96 96 96h554.667c53.018 0 96-42.981 96-96v-419.268c0-0.205 0-0.414 0-0.619v-134.78c0-53.018-42.982-96-96-96h-554.667c-53.019 0-96 42.982-96 96v554.667zM319.218 138.667h470.115c17.673 0 32 14.327 32 32v119.462l-93.662 72.845-150.699-146.509c-11.447-11.132-29.35-12.122-41.954-2.317l-102.037 79.364-113.763-154.846zM821.333 371.204v354.129c0 17.673-14.327 32-32 32h-554.667c-17.673 0-32-14.327-32-32v-554.667c0-17.673 14.327-32 32-32h5.135l161.076 219.243c5.115 6.963 12.827 11.558 21.384 12.749 8.556 1.19 17.23-1.131 24.052-6.434l106.014-82.458 150.699 146.509c11.447 11.132 29.35 12.122 41.954 2.317l76.352-59.388zM362.583 693.333c0.028 0 0.056 0 0.084 0 53.019 0 96-42.981 96-96 0-52.986-42.929-95.953-95.915-96s-95.991 42.844-96.085 95.83c-0.094 52.986 42.758 96.029 95.744 96.17 0.058 0 0.115 0 0.172 0zM362.581 629.333c-17.662-0.047-31.946-14.395-31.915-32.057s14.366-31.959 32.029-31.943c17.662 0.015 31.971 14.338 31.971 32 0 17.673-14.327 32-32 32-0.029 0-0.057 0-0.085 0z" />
<glyph unicode="&#xe987;" glyph-name="new-timer" d="M394.667 917.333c0 17.673 14.327 32 32 32h170.667c17.673 0 32-14.327 32-32s-14.327-32-32-32h-53.333v-107.879c80.119-6.095 153.894-34.884 214.912-79.954l70.537 70.537c-11.226 12.565-10.803 31.862 1.259 43.924 12.497 12.497 32.755 12.497 45.252 0l42.667-42.667c12.497-12.497 12.497-32.758 0-45.255-12.062-12.062-31.356-12.482-43.921-1.258l-67.255-67.255c74.522-75.176 120.55-178.641 120.55-292.859 0-229.751-186.249-416-416-416s-416 186.249-416 416c0 218.983 169.201 398.447 384 414.787v107.879h-53.333c-17.673 0-32 14.327-32 32zM512 714.667c-194.404 0-352-157.596-352-352 0-194.402 157.596-352 352-352 194.402 0 352 157.598 352 352 0 194.404-157.598 352-352 352zM318.706 555.961c12.497 12.497 32.758 12.497 45.255 0l170.665-170.668c12.497-12.497 12.497-32.755 0-45.252s-32.755-12.497-45.252 0l-170.668 170.667c-12.497 12.497-12.497 32.757 0 45.254z" />
<glyph unicode="&#xe989;" glyph-name="attention" d="M67.275 426.369c0-242.376 196.483-438.857 438.855-438.857 242.376 0 438.857 196.481 438.857 438.857s-196.481 438.857-438.857 438.857c-242.372 0-438.855-196.483-438.855-438.857zM18.512 426.369c0 269.304 218.315 487.619 487.617 487.619 269.307 0 487.619-218.315 487.619-487.619 0-269.307-218.312-487.619-487.619-487.619-269.303 0-487.617 218.312-487.617 487.619zM537.576 700.033c-3.623 3.105-8.025 4.657-13.2 4.657h-37.265c-5.176 0-9.316-1.553-12.423-4.657-3.107-3.623-4.659-8.021-4.659-13.197v-367.991c0-5.173 1.553-9.317 4.659-12.42 3.105-3.623 7.245-5.437 12.423-5.437h37.265c5.173 0 9.577 1.813 13.2 5.437 3.101 3.101 4.657 7.247 4.657 12.42v367.991c0 5.176-1.556 9.575-4.657 13.197zM543.783 221.023c-3.623 3.107-8.021 4.657-13.195 4.657h-48.912c-5.176 0-9.316-1.551-12.423-4.657-3.623-3.623-5.435-8.021-5.435-13.2v-41.921c0-5.179 1.812-9.317 5.435-12.42 3.105-3.623 7.245-5.437 12.423-5.437h48.912c5.173 0 9.572 1.815 13.195 5.437 3.105 3.101 4.661 7.241 4.661 12.42v41.921c0 5.179-1.556 9.577-4.661 13.2z" />
<glyph unicode="&#xe98a;" glyph-name="deployed_code" horiz-adv-x="983" d="M471.040 134.849v304.206l-266.24 154.154v-290.030c0-4.198 1.050-8.139 3.151-11.813 2.101-3.678 5.251-6.828 9.453-9.454l253.637-147.063zM512 134.849l253.637 147.063c4.202 2.626 7.352 5.775 9.454 9.454 2.101 3.674 3.15 7.614 3.15 11.813v290.030l-266.24-154.154v-304.206zM491.52 474.268l263.168 152.103-250.565 145.014c-4.202 2.626-8.401 3.938-12.603 3.938s-8.401-1.313-12.603-3.938l-250.565-145.014 263.168-152.103zM196.923 245.678c-10.344 5.935-18.445 13.996-24.3 24.183s-8.783 21.213-8.783 33.083v295.699c0 11.867 2.927 22.895 8.783 33.083s13.955 18.249 24.3 24.183l261.514 150.686c10.346 5.933 21.373 8.901 33.083 8.901s22.737-2.967 33.083-8.901l261.513-150.686c10.346-5.934 18.444-13.995 24.302-24.183 5.853-10.188 8.782-21.215 8.782-33.083v-295.699c0-11.87-2.929-22.897-8.782-33.083-5.857-10.187-13.955-18.248-24.302-24.183l-261.513-150.688c-10.346-5.931-21.373-8.901-33.083-8.901s-22.737 2.97-33.083 8.901l-261.514 150.688z" />
<glyph unicode="&#xe994;" glyph-name="blue-cube-stop" d="M358.4 620.8c-10.604 0-19.2-8.596-19.2-19.2v-307.2c0-10.604 8.596-19.2 19.2-19.2h307.2c10.604 0 19.2 8.596 19.2 19.2v307.2c0 10.604-8.596 19.2-19.2 19.2h-307.2z" />
<glyph unicode="&#xe995;" glyph-name="macro-v-1-recurring" d="M181.333 645.333c0 17.673 14.327 32 32 32h522.667c45.653 0 82.667-37.010 82.667-82.667v-117.333c0-17.673-14.327-32-32-32s-32 14.327-32 32v117.333c0 10.309-8.358 18.667-18.667 18.667h-522.667c-17.673 0-32 14.327-32 32zM229.333 432c17.673 0 32-14.327 32-32v-117.333c0-10.308 8.358-18.667 18.667-18.667h522.667c17.673 0 32-14.327 32-32s-14.327-32-32-32h-522.667c-45.656 0-82.667 37.013-82.667 82.667v117.333c0 17.673 14.327 32 32 32zM337.294 769.294c12.497-12.497 12.497-32.758 0-45.255l-78.706-78.706 78.706-78.706c12.497-12.497 12.497-32.758 0-45.254-12.497-12.497-32.758-12.497-45.255 0l-101.333 101.332c-12.497 12.497-12.497 32.758 0 45.255l101.333 101.333c12.497 12.497 32.758 12.497 45.255 0zM678.707 355.959c12.497 12.497 32.755 12.497 45.252 0l101.333-101.333c12.497-12.497 12.497-32.755 0-45.252l-101.333-101.333c-12.497-12.497-32.755-12.497-45.252 0s-12.497 32.755 0 45.252l78.703 78.707-78.703 78.707c-12.497 12.497-12.497 32.755 0 45.252z" />
<glyph unicode="&#xe996;" glyph-name="macro-v-1" d="M400.147 614.464c9.984 5.693 22.254 5.596 32.147-0.256l234.615-138.791c9.732-5.76 15.706-16.23 15.706-27.541s-5.973-21.781-15.706-27.541l-234.615-138.786c-9.894-5.854-22.164-5.948-32.148-0.256-9.984 5.696-16.147 16.303-16.147 27.797v277.577c0 11.493 6.164 22.103 16.147 27.797zM448 530.556v-165.355l139.763 82.675-139.763 82.679zM512 842.667c-217.968 0-394.667-176.698-394.667-394.667 0-217.967 176.698-394.667 394.667-394.667 217.967 0 394.667 176.7 394.667 394.667 0 217.968-176.7 394.667-394.667 394.667zM53.333 448c0 253.315 205.352 458.667 458.667 458.667s458.667-205.352 458.667-458.667c0-253.316-205.35-458.667-458.667-458.667-253.315 0-458.667 205.35-458.667 458.667z" />
<glyph unicode="&#xe997;" d="M0 448c0 282.77 229.23 512 512 512s512-229.23 512-512c0-282.77-229.23-512-512-512s-512 229.23-512 512z" />
<glyph unicode="&#xe998;" d="M512-38.4c268.631 0 486.4 217.769 486.4 486.4s-217.769 486.4-486.4 486.4c-268.631 0-486.4-217.769-486.4-486.4s217.769-486.4 486.4-486.4zM0 448c0 282.77 229.23 512 512 512s512-229.23 512-512c0-282.77-229.23-512-512-512s-512 229.23-512 512zM192.307 320v33.178l13.517 1.229c7.919 0.819 11.878 4.641 11.878 11.469v190.464l-23.347 1.229v34.816h111.821c31.675 0 55.98-5.87 72.909-17.613s25.395-30.994 25.395-57.754c0-18.568-4.915-33.861-14.746-45.875-9.556-12.014-21.025-20.754-34.406-26.214 9.83-3.551 17.613-11.878 23.347-24.986l29.491-64.307 23.347-0.819v-34.816h-101.171v33.178l11.878 1.229c6.28 0.819 9.421 3.277 9.421 7.373 0 1.638-0.545 3.551-1.638 5.734l-19.251 40.96c-3.003 6.828-6.418 11.604-10.24 14.336-3.551 3.003-8.737 4.506-15.565 4.506h-37.274v-71.27l26.624-1.229v-34.816h-101.991zM267.674 466.227h35.635c33.587 0 50.381 15.020 50.381 45.056 0 17.203-4.506 28.398-13.517 33.587-8.737 5.189-22.938 7.782-42.598 7.782h-29.901v-86.426zM551.926 532.173c20.48 0 36.728-5.051 48.742-15.155 12.017-9.83 18.022-23.757 18.022-41.779 0-12.014-2.593-22.664-7.782-31.949-5.187-9.011-11.604-16.11-19.251-21.299-7.644-5.189-16.929-9.421-27.853-12.698-18.294-5.46-38.912-8.192-61.85-8.192 0.819-14.472 5.325-26.214 13.517-35.226 8.192-8.737 20.754-13.107 37.683-13.107 16.932 0 33.861 6.008 50.79 18.022l15.565-33.178c-5.46-4.915-14.746-9.966-27.853-15.155-12.833-5.189-27.579-7.782-44.237-7.782-33.313 0-57.754 9.147-73.318 27.443-15.565 18.568-23.347 43.963-23.347 76.186s8.876 59.256 26.624 81.101c17.751 21.844 42.598 32.768 74.547 32.768zM533.084 438.374c10.104 1.912 19.389 5.87 27.853 11.878 8.466 6.28 12.698 13.652 12.698 22.118 0 16.658-8.192 24.986-24.576 24.986-15.291 0-27.034-6.144-35.226-18.432-8.192-12.014-12.698-26.488-13.517-43.418 12.017 0.274 22.938 1.229 32.768 2.867zM710.185 371.2c8.74-12.833 21.299-19.251 37.683-19.251 16.658 0 33.042 5.87 49.152 17.613l17.613-31.539c-19.387-15.839-43.689-23.757-72.909-23.757-29.217 0-52.291 9.147-69.222 27.443-16.655 18.568-24.986 45.875-24.986 81.92s9.559 63.078 28.672 81.101c19.389 18.296 41.098 27.443 65.126 27.443 24.305 0 46.833-5.599 67.584-16.794v-53.248l-37.683-2.867v19.661c0 7.373-2.729 11.878-8.192 13.517-5.187 1.912-10.65 2.867-16.384 2.867-33.039 0-49.562-23.347-49.562-70.042 0-23.212 4.37-41.234 13.107-54.067z" />
<glyph unicode="&#xe99a;" glyph-name="external-link" d="M245.333 757.333c-23.564 0-42.667-19.103-42.667-42.667v-533.333c0-23.565 19.103-42.667 42.667-42.667h533.333c23.565 0 42.667 19.102 42.667 42.667v174.221c0 17.673 14.327 32 32 32s32-14.327 32-32v-174.221c0-58.91-47.757-106.667-106.667-106.667h-533.333c-58.91 0-106.667 47.757-106.667 106.667v533.333c0 58.91 47.756 106.667 106.667 106.667h174.222c17.671 0 31.999-14.327 31.999-32s-14.327-32-31.999-32h-174.222zM821.333 712.079l-286.707-286.705c-12.497-12.497-32.755-12.497-45.252 0s-12.497 32.755 0 45.252l286.703 286.707h-136.077c-17.673 0-32 14.327-32 32s14.327 32 32 32h213.333c4.339 0 8.478-0.864 12.25-2.428 3.772-1.562 7.309-3.876 10.377-6.944 6.251-6.249 9.374-14.438 9.374-22.627v-213.333c0-17.673-14.327-32-32-32s-32 14.327-32 32v136.079z" />
<glyph unicode="&#xe99b;" glyph-name="more-info" d="M512 861.867c-230.4 0-418.133-187.733-418.133-418.133s187.733-418.133 418.133-418.133 418.133 187.733 418.133 418.133c0 234.667-187.733 418.133-418.133 418.133zM512 93.867c-196.267 0-349.867 157.867-349.867 349.867 0 196.267 157.867 349.867 349.867 349.867s349.867-157.867 349.867-349.867c0-192-153.6-349.867-349.867-349.867zM554.667 648.533c0-28.277-22.923-51.2-51.2-51.2s-51.2 22.923-51.2 51.2c0 28.277 22.923 51.2 51.2 51.2s51.2-22.923 51.2-51.2zM631.467 234.667c0-17.067-12.8-34.133-34.133-34.133h-170.667c-17.067 0-34.133 12.8-34.133 34.133 0 17.067 12.8 34.133 34.133 34.133h51.2v221.867c0 4.267 0 4.267-4.267 8.533 0 0-4.267 4.267-8.533 4.267h-42.667c-17.067 0-21.333 12.8-21.333 34.133 0 17.067 4.267 34.133 21.333 34.133h42.667c21.333 0 38.4-8.533 51.2-21.333s21.333-34.133 21.333-51.2v-221.867h59.733c17.067-12.8 34.133-25.6 34.133-42.667z" />
<glyph unicode="&#xe99c;" glyph-name="icon-remove-minus" d="M224 448c0 17.673 14.327 32 32 32h512c17.673 0 32-14.327 32-32s-14.327-32-32-32h-512c-17.673 0-32 14.327-32 32z" />
<glyph unicode="&#xe9a2;" glyph-name="new-ms-bar" d="M252.74 851.003h254.35v-58.777h-254.35v58.777zM234.698 890.013c-11.58 0-20.967-9.387-20.967-20.967v-94.861c0-11.58 9.387-20.968 20.967-20.968h290.432c11.581 0 20.969 9.388 20.969 20.968v94.861c0 11.58-9.388 20.968-20.969 20.968h-290.432zM252.74 600.343h468.084v-58.778h-468.084v58.778zM234.698 639.352c-11.58 0-20.967-9.388-20.967-20.966v-94.861c0-11.581 9.387-20.969 20.967-20.969h504.169c11.579 0 20.966 9.388 20.966 20.969v94.861c0 11.579-9.388 20.966-20.966 20.966h-504.169zM259.832 342.607h511.040v-58.775h-511.037l-0.003 58.775zM241.792 381.617c-11.58 0-20.968-9.388-20.968-20.966v-94.861c0-11.579 9.388-20.966 20.968-20.966h547.121c11.581 0 20.969 9.388 20.969 20.966v94.861c0 11.579-9.388 20.966-20.969 20.966h-547.121zM121.898 878.081c10.772 0 19.505-8.733 19.505-19.505v-760.685h760.687c10.77 0 19.505-8.735 19.505-19.505 0-10.772-8.735-19.507-19.505-19.507h-775.315c-13.465 0-24.381 10.916-24.381 24.381v775.315c0 10.772 8.732 19.505 19.505 19.505zM531.986 144.932c11.579 0 20.966 9.388 20.966 20.969v94.858c0 11.581-9.388 20.969-20.966 20.969h-290.433c-11.58 0-20.968-9.388-20.968-20.969v-94.858c0-11.581 9.388-20.969 20.968-20.969h290.433zM665.482 405.711c11.579 0 20.966 9.388 20.966 20.966v94.861c0 11.579-9.388 20.966-20.966 20.966h-431.002c-11.58 0-20.968-9.388-20.968-20.966v-94.861c0-11.579 9.388-20.969 20.968-20.969l431.002 0.003zM781.601 657.513c11.579 0 20.966 9.388 20.966 20.966v94.861c0 11.58-9.388 20.968-20.966 20.968h-547.123c-11.58 0-20.968-9.388-20.968-20.968v-94.861c0-11.579 9.388-20.966 20.968-20.966h547.123z" />
<glyph unicode="&#xe9a3;" glyph-name="new-ms-column" d="M229.288 187.759v248.145h57.344v-248.145h-57.344zM191.23 170.156c0-11.296 9.159-20.455 20.456-20.455h92.546c11.299 0 20.458 9.159 20.458 20.455v283.351c0 11.296-9.159 20.455-20.458 20.455h-92.546c-11.298 0-20.456-9.159-20.456-20.455v-283.351zM486.21 191.823v456.667h57.342v-456.667h-57.342zM448.152 174.22c0-11.299 9.159-20.458 20.455-20.458h92.547c11.296 0 20.455 9.159 20.455 20.458v491.87c0 11.299-9.159 20.458-20.455 20.458h-92.547c-11.296 0-20.455-9.159-20.455-20.458v-491.87zM737.66 187.759v498.573h57.344v-498.573h-57.344zM699.602 170.156c0-11.296 9.159-20.455 20.455-20.455h92.547c11.299 0 20.458 9.159 20.458 20.455v533.779c0 11.297-9.159 20.455-20.458 20.455h-92.547c-11.296 0-20.455-9.159-20.455-20.455v-533.779zM927.909 455.228c0 11.299-9.159 20.458-20.455 20.458h-92.547c-11.296 0-20.455-9.159-20.455-20.458v-283.348c0-11.299 9.159-20.458 20.455-20.458h92.547c11.296 0 20.455 9.159 20.455 20.458v283.348zM676.869 573.467c0 11.296-9.159 20.455-20.458 20.455h-92.545c-11.299 0-20.458-9.159-20.458-20.455v-401.588c0-11.299 9.159-20.458 20.458-20.458h92.545c11.299 0 20.458 9.159 20.458 20.458v401.588zM420.502 703.948c0 11.297-9.159 20.456-20.455 20.456h-92.547c-11.299 0-20.458-9.159-20.458-20.456v-533.779c0-11.296 9.159-20.455 20.458-20.455h92.547c11.296 0 20.455 9.159 20.455 20.455v533.779zM137.938 860.098c10.509 0 19.029-8.52 19.029-19.029v-742.133h742.133c10.51 0 19.029-8.519 19.029-19.029s-8.519-19.029-19.029-19.029h-756.405c-13.137 0-23.786 10.65-23.786 23.787v756.404c0 10.509 8.519 19.029 19.029 19.029z" />
<glyph unicode="&#xe9a9;" glyph-name="new-stacked-bar" d="M918.397 61.865h-792.533v792.534c0 11.2-9.067 20.267-20.267 20.267s-20.267-9.067-20.267-20.267v-807.733c0-14.134 11.467-25.334 25.334-25.334h807.733c11.2 0 20.268 9.068 20.268 20.268s-9.068 20.265-20.268 20.265zM206.944 734.399v-101.6c0-11.999 9.867-21.868 21.867-21.868h363.466c12.001 0 21.868 9.869 21.868 21.868v101.6c0 12-9.866 21.867-21.868 21.867h-363.466c-12 0-21.867-9.867-21.867-21.867zM385.344 715.732v-64h-137.867v64h137.867zM206.935 498.936v-101.599c0-12.001 9.867-21.868 21.867-21.868h239.199c12.001 0 21.868 9.866 21.868 21.868v101.599c0 12.001-9.866 21.868-21.868 21.868h-239.199c-12 0-21.867-9.866-21.867-21.868zM385.336 480.003v-64h-137.868v64h137.868zM206.929 263.196v-101.601c0-11.999 9.867-21.865 21.867-21.865h566.399c12.001 0 21.868 9.866 21.868 21.865v101.601c0 11.999-9.866 21.868-21.868 21.868h-566.399c-12 0-21.867-9.869-21.867-21.868zM501.33 244.262v-64h-253.868v64h253.868z" />
<glyph unicode="&#xe9aa;" glyph-name="newStackedColumn" d="M121.898 857.6c10.772 0 19.505-8.733 19.505-19.505v-760.686h760.687c10.77 0 19.505-8.732 19.505-19.505s-8.735-19.505-19.505-19.505h-775.315c-13.465 0-24.381 10.916-24.381 24.381v775.314c0 10.772 8.732 19.505 19.505 19.505zM254.986 507.054v-312.94h61.547v312.94h-61.547zM215.977 525.094c0 11.581 9.388 20.969 20.968 20.969h97.629c11.581 0 20.969-9.388 20.969-20.969v-349.020c0-11.581-9.388-20.969-20.969-20.969h-97.629c-11.58 0-20.968 9.388-20.968 20.969v349.020zM481.249 387.643v-193.528h61.545v193.528h-61.545zM442.24 405.683c0 11.581 9.388 20.969 20.966 20.969h97.631c11.581 0 20.969-9.388 20.969-20.969v-229.609c0-11.581-9.388-20.969-20.969-20.969h-97.631c-11.579 0-20.966 9.388-20.966 20.969v229.609zM707.464 701.88v-507.766h61.545v507.766h-61.545zM668.454 719.922c0 11.58 9.388 20.968 20.966 20.968h97.631c11.579 0 20.966-9.388 20.966-20.968v-543.848c0-11.581-9.388-20.969-20.966-20.969h-97.631c-11.579 0-20.966 9.388-20.966 20.969v543.848zM223.649 532.687h103.125v-206.231h-103.125v206.231zM460.424 405.932h103.124v-79.475h-103.124v79.475zM696.399 729.944h103.124v-292.176h-103.124v292.176z" />
<glyph unicode="&#xe9b0;" glyph-name="local_shipping" d="M372.588 256l-93.268 93.278v127.957l-26.702-0.004v-139.055l110.711-110.711 18.897 18.897-9.638 9.638zM506.287 343.812c0-15.479-1.365-30.528-4.105-45.146h160.794v405.333h-521.846c-6.564 0-12.582-2.735-18.051-8.205s-8.206-11.488-8.206-18.051v-146.996c17.126 13.801 36.231 25.254 57.316 34.36 29.228 12.624 60.458 18.936 93.69 18.936s64.476-6.306 93.731-18.918c29.255-12.612 54.704-29.729 76.344-51.351 21.641-21.619 38.775-47.044 51.396-76.271 12.625-29.231 18.935-60.459 18.935-93.692zM659.695 256h-169.869c-0.789-1.98-1.609-3.955-2.453-5.918-12.612-29.257-29.73-54.703-51.349-76.348-21.623-21.641-47.047-38.771-76.275-51.396s-60.458-18.935-93.69-18.935c-33.232 0-64.476 6.306-93.732 18.918s-54.704 29.73-76.345 51.349c-21.641 21.619-38.773 47.044-51.397 76.275-12.624 29.227-18.936 60.459-18.936 93.687 0 33.233 6.306 64.478 18.918 93.734 7.585 17.591 16.798 33.809 27.64 48.649v191.728c0 19.637 6.578 36.034 19.733 49.189s29.552 19.733 49.19 19.733h564.512v-154.256h98.462l147.691-198.563v-137.847h-68.924c0-30.997-10.867-57.344-32.602-79.044-21.734-21.696-48.128-32.546-79.181-32.546-31.049 0-57.378 10.85-78.985 32.546-21.606 21.7-32.41 48.047-32.41 79.044zM771.285 187.076c19.2 0 35.486 6.69 48.862 20.062 13.372 13.376 20.058 29.662 20.058 48.862s-6.686 35.486-20.058 48.862c-13.376 13.372-29.662 20.062-48.862 20.062s-35.49-6.69-48.862-20.062c-13.376-13.376-20.062-29.662-20.062-48.862s6.686-35.486 20.062-48.862c13.372-13.372 29.662-20.062 48.862-20.062zM705.643 384h201.024l-125.538 165.744h-75.486v-165.744z" />
<glyph unicode="&#xe9b8;" glyph-name="toolbar_paste" horiz-adv-x="1058" d="M317.613 147.036c-15.272 0-28.28 5.369-39.024 16.114-10.743 10.742-16.114 23.75-16.114 39.025v435.856c0 15.272 5.371 28.28 16.114 39.024s23.751 16.114 39.024 16.114h158.26c3.195 13.347 10.284 24.561 21.268 33.641s23.784 13.621 38.4 13.621c14.879 0 27.778-4.54 38.694-13.621 10.919-9.080 17.978-20.294 21.169-33.641h158.065c15.275 0 28.279-5.371 39.025-16.114 10.742-10.743 16.114-23.751 16.114-39.024v-435.856c0-15.275-5.373-28.283-16.114-39.025-10.745-10.745-23.75-16.114-39.025-16.114h-435.856zM317.613 181.169h435.856c5.253 0 10.066 2.188 14.442 6.564s6.564 9.189 6.564 14.442v435.856c0 5.251-2.188 10.064-6.564 14.441s-9.189 6.564-14.442 6.564h-81.394v-76.144h-273.067v76.144h-81.395c-5.251 0-10.065-2.188-14.441-6.564s-6.564-9.19-6.564-14.441v-435.856c0-5.253 2.188-10.066 6.564-14.442s9.19-6.564 14.441-6.564zM535.542 651.158c7.919 0 14.496 2.615 19.726 7.845s7.844 11.804 7.844 19.725c0 7.921-2.615 14.495-7.844 19.725s-11.807 7.845-19.726 7.845c-7.922 0-14.496-2.615-19.726-7.845s-7.844-11.804-7.844-19.725c0-7.921 2.615-14.496 7.844-19.725s11.803-7.845 19.726-7.845z" />
<glyph unicode="&#xe9bc;" glyph-name="clipboard" horiz-adv-x="983" d="M312.32 76.288c-23.757 0-47.104 9.83-63.898 26.214-17.203 17.203-26.214 39.731-26.214 63.898v511.998c0 24.166 9.421 46.694 26.214 63.898 16.794 16.794 40.141 26.214 63.898 26.214h37.274l2.458 9.421c6.144 24.576 28.262 41.779 53.658 41.779h172.442c25.395 0 47.514-17.203 53.658-41.779l2.458-9.421h37.274c23.757 0 47.104-9.83 63.898-26.214 17.203-17.203 26.214-39.731 26.214-63.898v-511.998c0-24.166-9.421-46.694-26.214-63.898-16.794-16.794-40.141-26.214-63.898-26.214h-359.22zM312.32 741.886c-16.794 0-32.768-6.554-45.056-18.432-11.878-11.878-18.432-28.262-18.432-45.056v-511.998c0-16.794 6.963-33.178 18.432-45.056 11.878-11.878 27.853-18.432 45.056-18.432h358.4c16.794 0 33.178 6.963 45.056 18.432 11.878 11.878 18.432 28.262 18.432 45.056v511.998c0 16.794-6.963 33.178-18.432 45.056-11.878 11.878-28.262 18.432-45.056 18.432h-37.274l-2.458-9.421c-6.144-24.576-28.262-41.779-53.658-41.779h-172.442c-25.395 0-47.514 17.203-53.658 41.779l-2.458 9.421h-36.454zM405.299 793.086c-15.565 0-28.672-12.698-28.672-28.672v-18.842c0-15.565 12.698-28.672 28.672-28.672h172.442c15.565 0 28.672 12.698 28.672 28.672v18.842c0 15.565-12.698 28.672-28.672 28.672h-172.442z" />
<glyph unicode="&#xe9bd;" glyph-name="join-inner" d="M298.667 192c-71.168 0-131.627 24.875-181.376 74.624-49.749 49.779-74.624 110.238-74.624 181.376 0 71.168 24.875 131.627 74.624 181.376 49.778 49.749 110.237 74.624 181.376 74.624 25.771 0 50.461-3.698 74.069-11.093s45.312-18.105 65.109-32.128c-5.547-5.035-10.782-10.411-15.701-16.128l-14.677-17.109c-15.303 10.723-32.171 19.029-50.603 24.917-18.403 5.917-37.803 8.875-58.197 8.875-59.022 0-109.326-20.807-150.912-62.421s-62.393-91.917-62.421-150.912c0-59.021 20.807-109.342 62.421-150.955s91.918-62.409 150.912-62.379c20.395 0 39.794 2.957 58.197 8.875 18.432 5.888 35.299 14.195 50.603 24.917l14.677-17.067c4.919-5.747 10.155-11.136 15.701-16.171-19.826-14.050-41.529-24.759-65.109-32.128-23.609-7.394-48.299-11.093-74.069-11.093zM640 192c-25.771 0-50.462 3.699-74.069 11.093s-45.312 18.103-65.109 32.128c5.547 5.035 10.782 10.411 15.701 16.128l14.677 17.109c15.475-10.722 32.371-19.029 50.688-24.917 18.347-5.918 37.717-8.875 58.112-8.875 59.021 0 109.342 20.809 150.955 62.421s62.409 91.917 62.379 150.912c0 59.021-20.809 109.326-62.421 150.912s-91.917 62.393-150.912 62.421c-20.395 0-39.765-2.958-58.112-8.875-18.317-5.888-35.213-14.194-50.688-24.917l-14.677 17.067c-4.919 5.746-10.155 11.136-15.701 16.171 19.827 14.051 41.527 24.761 65.109 32.128 23.607 7.395 48.299 11.093 74.069 11.093 71.168 0 131.627-24.875 181.376-74.624 49.749-49.778 74.624-110.238 74.624-181.376 0-71.168-24.875-131.627-74.624-181.376-49.779-49.749-110.238-74.624-181.376-74.624zM469.333 258.475c-26.85 23.893-47.787 52.339-62.805 85.333s-22.528 67.725-22.528 104.192c0 36.467 7.509 71.198 22.528 104.192s35.955 61.44 62.805 85.333c26.85-23.893 47.787-52.338 62.805-85.333s22.528-67.725 22.528-104.192-7.509-71.198-22.528-104.192c-15.019-32.994-35.955-61.44-62.805-85.333z" />
<glyph unicode="&#xe9be;" d="M341.333 192c-71.168 0-131.627 24.875-181.376 74.624-49.749 49.779-74.624 110.238-74.624 181.376 0 71.168 24.875 131.627 74.624 181.376 49.778 49.749 110.237 74.624 181.376 74.624 25.771 0 50.461-3.698 74.069-11.093 23.607-7.395 45.312-18.105 65.109-32.128-5.547-5.035-10.782-10.411-15.701-16.128l-14.677-17.109c-15.305 10.723-32.171 19.029-50.603 24.917-18.403 5.917-37.803 8.875-58.197 8.875-59.022 0-109.326-20.807-150.912-62.421s-62.393-91.917-62.421-150.912c0-59.021 20.807-109.342 62.421-150.955s91.918-62.409 150.912-62.379c20.395 0 39.794 2.957 58.197 8.875 18.432 5.888 35.298 14.195 50.603 24.917l14.677-17.067c4.919-5.747 10.155-11.136 15.701-16.171-19.827-14.050-41.527-24.759-65.109-32.128-23.609-7.394-48.299-11.093-74.069-11.093zM682.667 192c-25.771 0-50.462 3.699-74.069 11.093s-45.312 18.103-65.109 32.128c5.547 5.035 10.782 10.411 15.701 16.128l14.677 17.109c15.475-10.722 32.371-19.029 50.688-24.917 18.347-5.918 37.717-8.875 58.112-8.875 59.021 0 109.342 20.809 150.955 62.421s62.409 91.917 62.379 150.912c0 59.021-20.809 109.326-62.421 150.912s-91.917 62.393-150.912 62.421c-20.395 0-39.765-2.958-58.112-8.875-18.317-5.888-35.213-14.194-50.688-24.917l-14.677 17.067c-4.919 5.746-10.155 11.136-15.701 16.171 19.827 14.051 41.527 24.761 65.109 32.128 23.607 7.395 48.299 11.093 74.069 11.093 71.168 0 131.627-24.875 181.376-74.624 49.749-49.778 74.624-110.238 74.624-181.376 0-71.168-24.875-131.627-74.624-181.376-49.779-49.749-110.238-74.624-181.376-74.624zM512 258.475c-26.85 23.893-47.787 52.339-62.805 85.333s-22.528 67.725-22.528 104.192c0 36.467 7.509 71.198 22.528 104.192s35.955 61.44 62.805 85.333c26.85-23.893 47.787-52.338 62.805-85.333 15.019-32.994 22.528-67.725 22.528-104.192s-7.509-71.198-22.528-104.192c-15.019-32.994-35.955-61.44-62.805-85.333z" />
<glyph unicode="&#xe9bf;" d="M938.667 661.333c0-47.128-38.205-85.333-85.333-85.333s-85.333 38.205-85.333 85.333c0 47.128 38.205 85.333 85.333 85.333s85.333-38.205 85.333-85.333z" />
<glyph unicode="&#xe9c0;" glyph-name="Property-1error" d="M346.601 278.934c11.92-11.919 31.245-11.919 43.165 0l125.872 125.874 125.874-125.874c11.919-11.919 31.248-11.919 43.168 0v0c11.919 11.919 11.919 31.244 0 43.164l-125.874 125.874 125.874 125.873c11.919 11.919 11.919 31.245 0 43.164v0c-11.919 11.92-31.248 11.92-43.168 0l-125.874-125.874-125.872 125.874c-11.919 11.92-31.245 11.92-43.164 0v0c-11.92-11.919-11.92-31.245 0-43.164l125.873-125.873-125.873-125.874c-11.92-11.919-11.92-31.244 0-43.164v0zM515.707 58.851c-53.817 0-104.403 10.211-151.76 30.638s-88.549 48.144-123.578 83.161c-35.031 35.013-62.763 76.19-83.197 123.523s-30.651 97.911-30.651 151.728c0 53.821 10.213 104.406 30.638 151.762s48.145 88.549 83.159 123.578c35.015 35.030 76.189 62.763 123.524 83.197s97.909 30.652 151.731 30.652c53.817 0 104.403-10.213 151.761-30.638 47.354-20.426 88.547-48.145 123.576-83.159 35.033-35.015 62.763-76.19 83.198-123.524s30.65-97.91 30.65-151.728c0-53.821-10.211-104.407-30.638-151.761-20.423-47.358-48.144-88.551-83.157-123.58-35.017-35.029-76.19-62.763-123.527-83.198-47.333-20.431-97.907-30.65-151.728-30.65zM515.637 120.291c91.48 0 168.96 31.744 232.448 95.232s95.232 140.972 95.232 232.448c0 91.476-31.744 168.96-95.232 232.448s-140.968 95.232-232.448 95.232c-91.476 0-168.958-31.744-232.446-95.232s-95.232-140.972-95.232-232.448c0-91.476 31.744-168.96 95.232-232.448s140.97-95.232 232.446-95.232z" />
<glyph unicode="&#xe9cf;" glyph-name="New-reorder" horiz-adv-x="992" d="M389.12 707.776c33.792 0 61.44-27.648 61.44-61.44s-27.648-61.44-61.44-61.44c-33.792 0-61.44 27.648-61.44 61.44s27.648 61.44 61.44 61.44zM389.12 339.136c33.792 0 61.44-27.648 61.44-61.44s-27.648-61.44-61.44-61.44c-33.792 0-61.44 27.648-61.44 61.44s27.648 61.44 61.44 61.44zM389.12 523.456c33.792 0 61.44-27.648 61.44-61.44s-27.648-61.44-61.44-61.44c-33.792 0-61.44 27.648-61.44 61.44s27.648 61.44 61.44 61.44zM593.92 707.776c33.792 0 61.44-27.648 61.44-61.44s-27.648-61.44-61.44-61.44c-33.792 0-61.44 27.648-61.44 61.44s27.648 61.44 61.44 61.44zM593.92 339.136c33.792 0 61.44-27.648 61.44-61.44s-27.648-61.44-61.44-61.44c-33.792 0-61.44 27.648-61.44 61.44s27.648 61.44 61.44 61.44zM593.92 523.456c33.792 0 61.44-27.648 61.44-61.44s-27.648-61.44-61.44-61.44c-33.792 0-61.44 27.648-61.44 61.44s27.648 61.44 61.44 61.44z" />
</font>
</defs>
</svg>
